Скачать игру uncharted 4 путь вора на пк через торрент на русском


A Thief’s End (2016) WEBRip 1080p

Оригинальное название: Uncharted 4: A Thief’s EndГод выпуска: 2016 г.Разработчик игры: Naughty Dog (США)Создатель видео: GamingWalkDiЖанр: ИгрофильмПродолжительность: 06:26:21

Перевод: Дублированный [Официальный]Субтитры: Русский хардсаб [Экранные надписи и тп.]Режиссеры: Нил Дракманн, Брюс Страли

В ролях: Нолан Норт, Трой Бэйкер, Ричард МакГонагл, Эмили Роуз, Уоррен Коул, Лора Бэйли, Брэндон Скотт и др.

Описание:Через три года после событий «Uncharted 3: Иллюзии Дрейка», Натан Дрейк как будто бы покинул мир охотников за сокровищами. Однако судьба бросает ему новый вызов, когда в жизни Дрейка вновь появляется его брат, Сэм, с просьбой спасти его жизнь. Он предлагает Дрейку приключение, от которого тот не может отказаться.

Охотясь за давно потерянными сокровищами капитана Генри Эвери, Сэм и Дрейк отправляются на поиски Либерталии, пиратской утопии глубоко в лесах Мадагаскара. «Uncharted 4: Путь вора» берет игроков в путешествие по всему миру, через поросшие джунглями острова, затерянные города и заснеженные вершины на поиски сокровища Эвери.

Дополнительная информация:Данное видео позиционируется как ИГРОФИЛЬМ (без комментариев). В игрофильме присутствуют все катсцены + урезанный геймплей (только геймплей который делает игрофильм цельным и сцены плавно перетекающие из геймплея в катсцену). Также хочу отметить и то, что сжимать Uncharted 4 в 1,5 или 2 часа экранного фильма просто невозможно, потеряются многие ключевые сюжетные повороты, да и вообще в игре геймплея кот наплакал, так как в основном в игре преобладают сами катсцены и геймплей плавно переходящий в катсцену.

Качество: WEBRip 1080pФормат: MP4Видео: MPEG-4 AVC Video (H.264) / 1920х1080 / 3221 kbps / 29.970 fpsАудио: AAC, 2 channels, 44.1 kHz, 128 kbps

MediaInfo

General Complete name : Uncharted.4.A.Thiefs.End.2016.D.WEBRip.1080p.mp4 Format : MPEG-4 Format profile : Base Media Codec ID : isom File size : 9.06 GiB Duration : 6h 26mn Overall bit rate : 3 357 Kbps Writing application : Lavf56.40.101

Video ID : 1 Format : AVC Format/Info : Advanced Video Codec Format profile : [email protected] Format settings, CABAC : Yes Format settings, ReFrames : 2 frames Codec ID : avc1 Codec ID/Info : Advanced Video Coding Duration : 6h 26mn Duration_FirstFrame : -33ms Bit rate : 3 221 Kbps Width : 1 920 pixels Height : 1 080 pixels Display aspect ratio : 16:9 Frame rate mode : Variable Frame rate : 29.970 fps Minimum frame rate : 29.970 fps Maximum frame rate : 29.990 fps Color space : YUV Chroma subsampling : 4:2:0 Bit depth : 8 bits Scan type : Progressive Bits/(Pixel*Frame) : 0.052 Stream size : 8.69 GiB (96%) Color primaries : BT.709 Transfer characteristics : BT.709 Matrix coefficients : BT.709 Color range : Limited

Audio ID : 2 Format : AAC Format/Info : Advanced Audio Codec Format profile : LC Codec ID : 40 Duration : 6h 26mn Source duration : 6h 26mn Bit rate mode : Constant Bit rate : 126 Kbps Channel(s) : 2 channels Channel positions : Front: L R Sampling rate : 44.1 KHz Compression mode : Lossy Stream size : 347 MiB (4%) Source stream size : 347 MiB (4%)

krutor.org

A Thief’s End (2016) WEBRip 720p

Оригинальное название: Uncharted 4: A Thief’s EndГод выпуска: 2016 г.Разработчик игры: Naughty Dog (США)Создатель видео: GamingWalkDiЖанр: ИгрофильмПродолжительность: 06:26:21

Перевод: Дублированный [Официальный]Субтитры: Русский хардсаб [Экранные надписи и тп.]Режиссеры: Нил Дракманн, Брюс Страли

В ролях: Нолан Норт, Трой Бэйкер, Ричард МакГонагл, Эмили Роуз, Уоррен Коул, Лора Бэйли, Брэндон Скотт и др.

Описание:Через три года после событий «Uncharted 3: Иллюзии Дрейка», Натан Дрейк как будто бы покинул мир охотников за сокровищами. Однако судьба бросает ему новый вызов, когда в жизни Дрейка вновь появляется его брат, Сэм, с просьбой спасти его жизнь. Он предлагает Дрейку приключение, от которого тот не может отказаться.

Охотясь за давно потерянными сокровищами капитана Генри Эвери, Сэм и Дрейк отправляются на поиски Либерталии, пиратской утопии глубоко в лесах Мадагаскара. «Uncharted 4: Путь вора» берет игроков в путешествие по всему миру, через поросшие джунглями острова, затерянные города и заснеженные вершины на поиски сокровища Эвери.

Дополнительная информация:Данное видео позиционируется как ИГРОФИЛЬМ (без комментариев). В игрофильме присутствуют все катсцены + урезанный геймплей (только геймплей который делает игрофильм цельным и сцены плавно перетекающие из геймплея в катсцену). Также хочу отметить и то, что сжимать Uncharted 4 в 1,5 или 2 часа экранного фильма просто невозможно, потеряются многие ключевые сюжетные повороты, да и вообще в игре геймплея кот наплакал, так как в основном в игре преобладают сами катсцены и геймплей плавно переходящий в катсцену.

Качество: WEBRip 720pФормат: MP4Видео: MPEG-4 AVC Video (H.264) / 1280х720 / 1662 kbps / 29.970 fpsАудио: AAC, 2 channels, 44.1 kHz, 128 kbps

MediaInfo

General Complete name : Uncharted.4.A.Thiefs.End.2016.D.WEBRip.720p.mp4 Format : MPEG-4 Format profile : Base Media / Version 2 Codec ID : mp42 File size : 4.84 GiB Duration : 6h 26mn Overall bit rate mode : Variable Overall bit rate : 1 792 Kbps Encoded date : UTC 2016-05-14 05:11:48 Tagged date : UTC 2016-05-14 05:11:48 gsst : 0 gstd : 23181711

Video ID : 1 Format : AVC Format/Info : Advanced Video Codec Format profile : [email protected] Format settings, CABAC : Yes Format settings, ReFrames : 3 frames Codec ID : avc1 Codec ID/Info : Advanced Video Coding Duration : 6h 26mn Bit rate : 1 662 Kbps Width : 1 280 pixels Height : 720 pixels Display aspect ratio : 16:9 Frame rate mode : Constant Frame rate : 29.970 fps Color space : YUV Chroma subsampling : 4:2:0 Bit depth : 8 bits Scan type : Progressive Bits/(Pixel*Frame) : 0.060 Stream size : 4.49 GiB (93%) Title : ISO Media file produced by Google Inc. Encoded date : UTC 2016-05-14 05:11:48 Tagged date : UTC 2016-05-14 05:11:48 Color primaries : BT.709 Transfer characteristics : BT.709 Matrix coefficients : BT.709 Color range : Limited

Audio ID : 2 Format : AAC Format/Info : Advanced Audio Codec Format profile : LC Codec ID : 40 Duration : 6h 26mn Bit rate mode : Variable Bit rate : 126 Kbps Channel(s) : 2 channels Channel positions : Front: L R Sampling rate : 44.1 KHz Compression mode : Lossy Stream size : 347 MiB (7%) Title : ISO Media file produced by Google Inc. Encoded date : UTC 2016-05-14 05:11:48 Tagged date : UTC 2016-05-14 05:11:48

krutor.org

Путь вора / Uncharted 4: A Thief’s End (2016) WEBRip 1080p :: Mrutor.org

Оригинальное название: Uncharted 4: A Thief’s EndГод выпуска: 2016 г.Разработчик игры: Naughty Dog (США)Создатель видео: GamingWalkDiЖанр: ИгрофильмПродолжительность: 06:26:21

Перевод: Дублированный [Официальный]Субтитры: Русский хардсаб [Экранные надписи и тп.]Режиссеры: Нил Дракманн, Брюс Страли

В ролях: Нолан Норт, Трой Бэйкер, Ричард МакГонагл, Эмили Роуз, Уоррен Коул, Лора Бэйли, Брэндон Скотт и др.

Описание:Через три года после событий «Uncharted 3: Иллюзии Дрейка», Натан Дрейк как будто бы покинул мир охотников за сокровищами. Однако судьба бросает ему новый вызов, когда в жизни Дрейка вновь появляется его брат, Сэм, с просьбой спасти его жизнь. Он предлагает Дрейку приключение, от которого тот не может отказаться.

Охотясь за давно потерянными сокровищами капитана Генри Эвери, Сэм и Дрейк отправляются на поиски Либерталии, пиратской утопии глубоко в лесах Мадагаскара. «Uncharted 4: Путь вора» берет игроков в путешествие по всему миру, через поросшие джунглями острова, затерянные города и заснеженные вершины на поиски сокровища Эвери.

Дополнительная информация:Данное видео позиционируется как ИГРОФИЛЬМ (без комментариев). В игрофильме присутствуют все катсцены + урезанный геймплей (только геймплей который делает игрофильм цельным и сцены плавно перетекающие из геймплея в катсцену). Также хочу отметить и то, что сжимать Uncharted 4 в 1,5 или 2 часа экранного фильма просто невозможно, потеряются многие ключевые сюжетные повороты, да и вообще в игре геймплея кот наплакал, так как в основном в игре преобладают сами катсцены и геймплей плавно переходящий в катсцену.

Качество: WEBRip 1080pФормат: MP4Видео: MPEG-4 AVC Video (H.264) / 1920х1080 / 3221 kbps / 29.970 fpsАудио: AAC, 2 channels, 44.1 kHz, 128 kbps

MediaInfo

General Complete name : Uncharted.4.A.Thiefs.End.2016.D.WEBRip.1080p.mp4 Format : MPEG-4 Format profile : Base Media Codec ID : isom File size : 9.06 GiB Duration : 6h 26mn Overall bit rate : 3 357 Kbps Writing application : Lavf56.40.101

Video ID : 1 Format : AVC Format/Info : Advanced Video Codec Format profile : [email protected] Format settings, CABAC : Yes Format settings, ReFrames : 2 frames Codec ID : avc1 Codec ID/Info : Advanced Video Coding Duration : 6h 26mn Duration_FirstFrame : -33ms Bit rate : 3 221 Kbps Width : 1 920 pixels Height : 1 080 pixels Display aspect ratio : 16:9 Frame rate mode : Variable Frame rate : 29.970 fps Minimum frame rate : 29.970 fps Maximum frame rate : 29.990 fps Color space : YUV Chroma subsampling : 4:2:0 Bit depth : 8 bits Scan type : Progressive Bits/(Pixel*Frame) : 0.052 Stream size : 8.69 GiB (96%) Color primaries : BT.709 Transfer characteristics : BT.709 Matrix coefficients : BT.709 Color range : Limited

Audio ID : 2 Format : AAC Format/Info : Advanced Audio Codec Format profile : LC Codec ID : 40 Duration : 6h 26mn Source duration : 6h 26mn Bit rate mode : Constant Bit rate : 126 Kbps Channel(s) : 2 channels Channel positions : Front: L R Sampling rate : 44.1 KHz Compression mode : Lossy Stream size : 347 MiB (4%) Source stream size : 347 MiB (4%)

mrutor.org

Путь вора / Uncharted 4: A Thief’s End (2016) WEBRip 720p :: Mrutor.org

Оригинальное название: Uncharted 4: A Thief’s EndГод выпуска: 2016 г.Разработчик игры: Naughty Dog (США)Создатель видео: GamingWalkDiЖанр: ИгрофильмПродолжительность: 06:26:21

Перевод: Дублированный [Официальный]Субтитры: Русский хардсаб [Экранные надписи и тп.]Режиссеры: Нил Дракманн, Брюс Страли

В ролях: Нолан Норт, Трой Бэйкер, Ричард МакГонагл, Эмили Роуз, Уоррен Коул, Лора Бэйли, Брэндон Скотт и др.

Описание:Через три года после событий «Uncharted 3: Иллюзии Дрейка», Натан Дрейк как будто бы покинул мир охотников за сокровищами. Однако судьба бросает ему новый вызов, когда в жизни Дрейка вновь появляется его брат, Сэм, с просьбой спасти его жизнь. Он предлагает Дрейку приключение, от которого тот не может отказаться.

Охотясь за давно потерянными сокровищами капитана Генри Эвери, Сэм и Дрейк отправляются на поиски Либерталии, пиратской утопии глубоко в лесах Мадагаскара. «Uncharted 4: Путь вора» берет игроков в путешествие по всему миру, через поросшие джунглями острова, затерянные города и заснеженные вершины на поиски сокровища Эвери.

Дополнительная информация:Данное видео позиционируется как ИГРОФИЛЬМ (без комментариев). В игрофильме присутствуют все катсцены + урезанный геймплей (только геймплей который делает игрофильм цельным и сцены плавно перетекающие из геймплея в катсцену). Также хочу отметить и то, что сжимать Uncharted 4 в 1,5 или 2 часа экранного фильма просто невозможно, потеряются многие ключевые сюжетные повороты, да и вообще в игре геймплея кот наплакал, так как в основном в игре преобладают сами катсцены и геймплей плавно переходящий в катсцену.

Качество: WEBRip 720pФормат: MP4Видео: MPEG-4 AVC Video (H.264) / 1280х720 / 1662 kbps / 29.970 fpsАудио: AAC, 2 channels, 44.1 kHz, 128 kbps

MediaInfo

General Complete name : Uncharted.4.A.Thiefs.End.2016.D.WEBRip.720p.mp4 Format : MPEG-4 Format profile : Base Media / Version 2 Codec ID : mp42 File size : 4.84 GiB Duration : 6h 26mn Overall bit rate mode : Variable Overall bit rate : 1 792 Kbps Encoded date : UTC 2016-05-14 05:11:48 Tagged date : UTC 2016-05-14 05:11:48 gsst : 0 gstd : 23181711

Video ID : 1 Format : AVC Format/Info : Advanced Video Codec Format profile : [email protected] Format settings, CABAC : Yes Format settings, ReFrames : 3 frames Codec ID : avc1 Codec ID/Info : Advanced Video Coding Duration : 6h 26mn Bit rate : 1 662 Kbps Width : 1 280 pixels Height : 720 pixels Display aspect ratio : 16:9 Frame rate mode : Constant Frame rate : 29.970 fps Color space : YUV Chroma subsampling : 4:2:0 Bit depth : 8 bits Scan type : Progressive Bits/(Pixel*Frame) : 0.060 Stream size : 4.49 GiB (93%) Title : ISO Media file produced by Google Inc. Encoded date : UTC 2016-05-14 05:11:48 Tagged date : UTC 2016-05-14 05:11:48 Color primaries : BT.709 Transfer characteristics : BT.709 Matrix coefficients : BT.709 Color range : Limited

Audio ID : 2 Format : AAC Format/Info : Advanced Audio Codec Format profile : LC Codec ID : 40 Duration : 6h 26mn Bit rate mode : Variable Bit rate : 126 Kbps Channel(s) : 2 channels Channel positions : Front: L R Sampling rate : 44.1 KHz Compression mode : Lossy Stream size : 347 MiB (7%) Title : ISO Media file produced by Google Inc. Encoded date : UTC 2016-05-14 05:11:48 Tagged date : UTC 2016-05-14 05:11:48

mrutor.org

A Thief’s End [2016 Игрофильм WEBRip 1080p Дубляж [Официальный] скачать через торрент

Размер: 9.06 GB | Добавлен: 1 год 5 мес. назад | Торрент скачан:124 раза
Реклама Дарим 3000 рублей за регистрацию, не упусти свой шанс получить шикарный бонус!!!

15-05-2016 18:12 Uncharted 4: Путь вора Скачать торрент  

Uncharted 4: Путь вора / Uncharted 4: A Thief’s End

Год выпуска: 2016Страна: США, GamingWalkDiЖанр: ИгрофильмПродолжительность: 06:26:21Перевод: Дубляж [Официальный]Субтитры: Русский хардсаб [Экранные надписи и тп.]

Режиссер: Нил Дракманн, Брюс Страли

В ролях: Нолан Норт, Трой Бэйкер, Ричард МакГонагл, Эмили Роуз, Уоррен Коул, Лора Бэйли, Брэндон Скотт и др.

Описание:

Через три года после событий «Uncharted 3: Иллюзии Дрейка», Натан Дрейк как будто бы покинул мир охотников за сокровищами. Однако судьба бросает ему новый вызов, когда в жизни Дрейка вновь появляется его брат, Сэм, с просьбой спасти его жизнь. Он предлагает Дрейку приключение, от которого тот не может отказаться.

Охотясь за давно потерянными сокровищами капитана Генри Эвери, Сэм и Дрейк отправляются на поиски Либерталии, пиратской утопии глубоко в лесах Мадагаскара. «Uncharted 4: Путь вора» берет игроков в путешествие по всему миру, через поросшие джунглями острова, затерянные города и заснеженные вершины на поиски сокровища Эвери.

Качество:WEBRip 1080pФормат: MPEG-4Видео кодек: AVCАудио кодек: AACВидео: 1920x1080, 29.970 fps, MPEG-4 AVC ~3221 kbps avgАудио#1: AAC / 2 ch / 126 kbps / 44,0 КГц / 16 bit

Данное видео позиционируется как ИГРОФИЛЬМ (без комментариев). В игрофильме присутствуют все катсцены + урезанный геймплей (только геймплей который делает игрофильм цельным и сцены плавно перетекающие из геймплея в катсцену). Также хочу отметить и то, что сжимать Uncharted 4 в 1,5 или 2 часа экранного фильма просто невозможно, потеряются многие ключевые сюжетные повороты, да и вообще в игре геймплея кот наплакал, так как в основном в игре преобладают сами катсцены и геймплей плавно переходящий в катсцену.

Complete name : Uncharted.4.A.Thiefs.End.2016.D.WEBRip.1080p.mp4 Format : MPEG-4 Format profile : Base Media Codec ID : isom File size : 9.06 GiB Duration : 6h 26mn Overall bit rate : 3 357 Kbps Writing application : Lavf56.40.101

VideoID : 1Format : AVCFormat/Info : Advanced Video CodecFormat profile : [email protected] settings, CABAC : YesFormat settings, ReFrames : 2 framesCodec ID : avc1Codec ID/Info : Advanced Video CodingDuration : 6h 26mnDuration_FirstFrame : -33msBit rate : 3 221 KbpsWidth : 1 920 pixelsHeight : 1 080 pixelsDisplay aspect ratio : 16:9Frame rate mode : VariableFrame rate : 29.970 fpsMinimum frame rate : 29.970 fpsMaximum frame rate : 29.990 fpsColor space : YUVChroma subsampling : 4:2:0Bit depth : 8 bitsScan type : ProgressiveBits/(Pixel*Frame) : 0.052Stream size : 8.69 GiB (96%)Color primaries : BT.709Transfer characteristics : BT.709Matrix coefficients : BT.709Color range : Limited

AudioID : 2Format : AACFormat/Info : Advanced Audio CodecFormat profile : LCCodec ID : 40Duration : 6h 26mnSource duration : 6h 26mnBit rate mode : ConstantBit rate : 126 KbpsChannel(s) : 2 channelsChannel positions : Front: L RSampling rate : 44.1 KHzCompression mode : LossyStream size : 347 MiB (4%)Source stream size : 347 MiB (4%)

Скачать Uncharted 4: Путь вора через торрент http://pic1.pb.wtf/images/10/kj39f.jpg Скачать фильм Uncharted 4: Путь вора через торрент бесплантно в хорошем качестве Описание: Через три года после событий «Uncharted 3: Иллюзии Дрейка», Натан Дрейк как будто бы покинул мир охотников за сокровищами. Однако ... 2016-05-15 18:12 8.4 10 18

Loading...

Loading...

Рекламный пират

15-05-2016 18:37 Uncharted 4: Путь вора Скачать торрент  

dev78 писал(а):

Ну вот дождались)) Ждем теперь на пс не таблеток на новые игры а игрофильмов))))

15-05-2016 18:37 Uncharted 4: Путь вора Скачать торрент  

gnev78, dev78, мимо пройти трудно???? поможем....

15-05-2016 18:44 Uncharted 4: Путь вора Скачать торрент  

Завтра будет возможность будет и Квантовый разлом / Quantum Break

15-05-2016 19:09 Uncharted 4: Путь вора Скачать торрент  

Haswell писал(а):

Завтра будет возможность будет и Квантовый разлом / Quantum Break

плюсану за квантум,смотрел,норм кинцо (там половина реальное кинцо кстать) ,анчарт не очень

15-05-2016 19:11 Uncharted 4: Путь вора Скачать торрент  

Прошел в первый же день выхода. Отличная игра получилась. По поводу малого количества геймплея бред полный. Порой очень длинные катсцены,из за этого и складывается такой ощущение.

15-05-2016 19:41 Uncharted 4: Путь вора Скачать торрент  

а мне нравится,можно и к другим играм,ну а что играть нечего будем смотреть

16-05-2016 19:55 Uncharted 4: Путь вора Скачать торрент  

Нормуль!Игрофильм - крутая тема,подвис на это с игры Last of Us,очень понравилась а на пс не было,вот и смотрел прохождение в виде игрофильма!Спасибо!забираю!

18-05-2016 20:31 Uncharted 4: Путь вора Скачать торрент  

Автор уже комментарии удалять начал за нормальный адекватный вопрос "зачем качать ЭТО если можно на ютубе посмотреть"? 66 дурачков уже скачали

Pекламный агент PB

19-05-2016 22:21 Uncharted 4: Путь вора Скачать торрент  

всем советую посмотреть не пожалеете

Дорогой пользователь! Огромная просьба, поблагодарите релизера, оцените раздачу и оставьте свои комментарий, если Вы скачали Uncharted 4: Путь вора через торрент бесплатно! Внесите свою лепту в развитие PiratBit!

Комментировать посты могут только пользователи прошедшие не сложную регистрацию

Uncharted 4: Путь вора через торрент Скачать бесплатно Uncharted 4: Путь вора Uncharted 4: Путь вора скачать торрент Uncharted 4: Путь вора смотреть онлайн Cкачать фильм Uncharted 4: Путь вора бесплатно Uncharted 4: Путь вора скачать торрент в хорошем качестве Uncharted 4: Путь вора смотреть онлайн бесплатно в хорошем качестве

Вы не можете начинать темыВы не можете отвечать на сообщенияВы не можете редактировать свои сообщенияВы не можете удалять свои сообщенияВы не можете голосовать в опросахВы не можете прикреплять файлы к сообщениямВы можете скачивать файлы

piratbit.ru


Смотрите также