Торрент пэн путешествие в нетландию


Путешествие в Нетландию (2015) скачать торрент бесплатно

Название: Пэн: Путешествие в Нетландию

Оригинальное название: Pan

Год выхода: 2015

Жанр: фэнтези, приключения, семейный

Режиссер: Джо Райт

В ролях: Хью Джекман, Леви Миллер, Гаррет Хедлунд, Руни Мара, Адиль Ахтар, Нонсо Анози, Аманда Сайфред, Кэти Бёрк, Льюис МакДугалл, Кара Делевинь

Сказки, что мы прочли в детстве останутся с нами на всю жизнь, неважно каким путем мы потом пойдем и до какой глубокой старости мы дожили. Они занимают в нашей памяти место, которое мы ассоциируем с добротой родителей, беззаботным детством и нашими самыми сильными желаниями, грезами.

Эти воспоминание для нас становятся отдушиной, местом куда можно сбежать и отвлечься от реально мира. И как же бывает чудесно, когда одну с этих сказок можно увидеть на экране телевизора или кинозала. И еще приятнее, когда это одна с самых любимых историй нашего детства, такая как «Питер Пен». В ней есть все, о чем фантазирует любой ребенок: загадочное история; новый, неизведанные мир; отличные и яркие персонажи, трогательные моменты, которые берут за душу; и хорошее окончание, куда без него в сказке.

А еще в ней есть пираты. Кино-экранизация Питера Пена — это, наверное, одно с лучших решений которое можно принять, при желании увековечить детских героев на телеэкранах. Дабы вместе с своими детьми вновь погрузиться в такой приятны мир детских грез.

Страна: США, Великобритания, Австралия

Студия: Warner Bros. Pictures

Продолжительность: 01:51:32

Перевод: Профессиональный (дублированный) Blu-ray EUR

Формат: Matroska

Видео: 1280x534 at 23.976 fps, [email protected], ~7832 kbps avg

Aудио#1: Russian: 48 kHz, AC3, 3/2 (L,C,R,l,r) + LFE ch, ~640.00 kbps avg |Дубляж, Blu-ray EUR|

Aудио#2: Ukrainian: 48 kHz, AC3, 2/0 (L,R) ch, ~192.00 kbps avg |Дубляж, iTunes Russia|

Aудио#3: English: 48 kHz, DTS, 3/2 (L,C,R,l,r) + LFE ch, ~1509.00 kbps avg

Aудио#4: English: 48 kHz, AC3, 2/0 (L,R) ch, ~64.00 kbps avg |Commentary with Director Joe Wright|

Субтитры: Russian (Forced), Russian (Full), Ukrainian (Forced), English, English (SDH)

Поиск торрент раздач, пожалуйста подождите!

Информация о торрент файле

Скачать торрент Торрент: Зарегистрирован Статус: v Проверено Просмотров: 849 Категория: приключения Общий размер: 8.14 GB

Поделитесь ссылкой на наш сайт с друзьями в соц.сетях ↓

mega-torrent.co

Путешествие в Нетландию / Pan (2015) DVD5

«У каждой легенды есть своё начало»

Год выпуска: 2015Производство: США, Великобритания, Австралия / Warner Bros. Pictures, RatPac-Dune Entertainment, Moving Picture Company, Berlanti ProductionsЖанр: Фэнтези, приключения, семейный

Режиссер: Джо РайтПродюсеры: Грег Берланти, Сара Шечтер, Пол УэбстерАктеры: Хью Джекман, Леви Миллер, Гаррет Хедлунд, Руни Мара, Адиль Ахтар, Нонсо Анози, Аманда Сайфред, Кэти Бёрк, Льюис МакДугалл, Кара Делевинь

Описание фильма: История о сироте, который попал в волшебную Нетландию, где его поджидали опасные приключения. Там он понял, что его судьба — стать героем, который навсегда останется известен под именем Питер Пэн.

Перевод: ДублированныйСубтитры: Английские, русские

Дата мировой премьеры: 20 сентября 2015Дата премьеры в России: 8 октября 2015, «Каро-Премьер»Дата выхода DVD релиза: 19 ноября 2015, «CP Дистрибуция»

Продолжительность: 01:51:26Качество видео: DVD5

Видео: MPEG-2, [email protected] (NTSC 16:9), ~4800 Кбит/секАудио 1: AC3 5.1, 384 Кбит/сек [Английский - оригинал]Аудио 2: AC3 5.1, 448 Кбит/сек [Русский - дублированный]

DVDInfo:

Title: Pan (2015) DVD5 NTSC Size: 4.35 Gb ( 4 564 272,00 KBytes ) - DVD-5 Enabled regions: 1, 2, 3, 4, 5, 6, 7, 8

VTS_01 : Play Length: 01:51:26+00:00:00+00:00:01+00:00:01 Video: NTSC 16:9 (720x480) VBR, Auto Letterboxed Audio: English (Dolby AC3, 6 ch) Russian (Dolby AC3, 6 ch) Subtitles: English Russian Russian

* Menus Information *

VIDEO_TS Menu Video: NTSC 16:9 (720x480) VBR Auto Letterboxed Language Unit : Title Menu

VTS_01 Menu Video: NTSC 16:9 (720x480) VBR Auto Pan&Scan Audio: Not specified (Dolby AC3, 2 ch) English Language Unit : Root Menu

MediaInfo:

Общее Полное имя : G:ВидеоPan (2015) DVD5 NTSCVIDEO_TSVTS_01_3.VOB Формат : MPEG-PS Размер файла : 1024 Мбайт Продолжительность : 25 м. Режим общего битрейта : Переменный Общий поток : 5725 Кбит/сек

Видео Идентификатор : 224 (0xE0) Формат : MPEG Video Версия формата : Version 2 Профиль формата : [email protected] Параметр BVOP формата : Да Параметр матрицы формата : Выборочная Параметр GOP формата : Variable Продолжительность : 24 м. Вид битрейта : Переменный Битрейт : 4779 Кбит/сек Максимальный битрейт : 7500 Кбит/сек Ширина : 720 пикселей Высота : 480 пикселей Соотношение сторон : 16:9 Частота кадров : 23,976 кадра/сек Стандарт вещания : NTSC Цветовое пространство : YUV Субдискретизация насыщенности : 4:2:0 Битовая глубина : 8 бит Тип развёртки : Прогрессивная Порядок развёртки : 2:3 Pulldown Метод сжатия : С потерями Бит/(Пиксели*Кадры) : 0.577 Временной код первого кадра : 00:52:03;01 Оригинал временного кода : Group of pictures header GOP, открыто/закрыто : Закрыто Размер потока : 855 Мбайт (83%)

Аудио #1 Идентификатор : 189 (0xBD)-128 (0x80) Формат : AC-3 Формат/Информация : Audio Coding 3 Расширение режима : CM (complete main) Параметр Endianness формата : Big Режим смешивания : DVD-Video Продолжительность : 25 м. Вид битрейта : Постоянный Битрейт : 384 Кбит/сек Каналы : 6 каналов Расположение каналов : Front: L C R, Side: L R, LFE Частота : 48,0 КГц Битовая глубина : 16 бит Метод сжатия : С потерями Задержка видео : -684 мс. Размер потока : 68,7 Мбайт (7%)

Аудио #2 Идентификатор : 189 (0xBD)-129 (0x81) Формат : AC-3 Формат/Информация : Audio Coding 3 Расширение режима : CM (complete main) Параметр Endianness формата : Big Режим смешивания : DVD-Video Продолжительность : 25 м. Вид битрейта : Постоянный Битрейт : 448 Кбит/сек Каналы : 6 каналов Расположение каналов : Front: L C R, Side: L R, LFE Частота : 48,0 КГц Битовая глубина : 16 бит Метод сжатия : С потерями Задержка видео : -684 мс. Размер потока : 80,1 Мбайт (8%)

Текст #1 Идентификатор : 189 (0xBD)-32 (0x20) Формат : RLE Формат/Информация : Run-length encoding Режим смешивания : DVD-Video Задержка видео : 4 с. 771 мс.

Текст #2 Идентификатор : 189 (0xBD)-33 (0x21) Формат : RLE Формат/Информация : Run-length encoding Режим смешивания : DVD-Video Задержка видео : 4 с. 104 мс.

Меню

Доп. информация:

Исходник: Пэн: Путешествие в Нетландию / Pan (2015) DVD9 | Custom Удалены: доп. материалы, описательная звуковая дорожка (в меню кнопки затёрты). Команды диска переписаны заново, оставлен один VTS. Видео сжато на 12,5% Меню: статичное, недействующие кнопки затерты и закрыты. Обработка и сжатие: DVD ReMake Pro + DVD Rebuilder + CCE SP2 [7 проходов] + Работа с меню (Adobe PhotoShop и MuxMan).

Скриншоты меню:

Скриншоты:

krutor.org

Скачать торрент Пэн: Путешествие в Нетландию / Pan (2015) BDRip 720p

Информация о фильмеНазвание: Пэн: Путешествие в НетландиюОригинальное название: PanГод выхода: 2015Жанр: фэнтези, приключения, семейныйРежиссер: Джо Райт / Joe WrightВ ролях: Хью Джекман, Леви Миллер, Гаррет Хедлунд, Руни Мара, Адиль Ахтар, Нонсо Анози, Аманда Сайфред, Кэти Бёрк, Льюис МакДугалл, Кара Делевинь, Тхэ-чжу На, Джек Чарльз

О фильме: История о сироте, который попал в волшебную Нетландию, где его поджидали опасные приключения. Там он понял, что его судьба - стать героем, который навсегда останется известен под именем Питер Пэн.

Страна: США, Великобритания, АвстралияПродолжительность: 01:51:32Перевод: Профессиональный (полное дублирование) [Лицензия]

ФайлКодек: x264Качество: BDRip 720pВидео: 1280х534 (2.40:1), 23,976 fps, AVC (H.264), [email protected], ~4800 Kbps avg, 0.293 bit/pixelАудио #1: 48 kHz, AC3 Dolby Digital, 3/2 (L,C,R,l,r) + LFE ch, ~448.00 kbps avg | RUS Аудио #2: 48 kHz, AC3 Dolby Digital, 3/2 (L,C,R,l,r) + LFE ch, ~384.00 kbps avg | ENG

MI

General Unique ID : 228141644625176672923166082299558321810 (0xABA27B84C314CB4FB71E3439B6335E92) Complete name : J:СборкаПэн. Путешествие в Нетландию. - Pan.2015.720p.BluRay.x264.mkv Format : Matroska Format version : Version 4 / Version 2 File size : 4.39 GiB Duration : 1h 51mn Overall bit rate : 5 630 Kbps Encoded date : UTC 2016-02-03 15:49:27 Writing application : mkvmerge v7.3.0 ('Nouages') 32bit built on Oct 22 2014 18:44:01 Writing library : libebml v1.3.0 + libmatroska v1.4.1 DURATION : 01:51:32.096000000 NUMBER_OF_FRAMES : 209128 NUMBER_OF_BYTES : 374757376 _STATISTICS_WRITING_APP : mkvmerge v7.3.0 ('Nouages') 32bit built on Oct 22 2014 18:44:01 _STATISTICS_WRITING_DATE_UTC : 2016-02-03 15:49:27 _STATISTICS_TAGS : BPS DURATION NUMBER_OF_FRAMES NUMBER_OF_BYTES Video #1 ID : 1 Format : AVC Format/Info : Advanced Video Codec Format profile : [email protected] Format settings, CABAC : Yes Format settings, ReFrames : 12 frames Codec ID : V_MPEG4/ISO/AVC Duration : 1h 51mn Bit rate : 4 800 Kbps Width : 1 280 pixels Height : 534 pixels Display aspect ratio : 2.40:1 Frame rate mode : Constant Frame rate : 23.976 fps Color space : YUV Chroma subsampling : 4:2:0 Bit depth : 8 bits Scan type : Progressive Bits/(Pixel*Frame) : 0.293 Stream size : 3.65 GiB (83%) Writing library : x264 core 130 r2273 b3065e6 Encoding settings : cabac=1 / ref=12 / deblock=1:-3:-3 / analyse=0x3:0x113 / me=umh / subme=11 / psy=1 / psy_rd=1.00:0.05 / mixed_ref=1 / me_range=32 / chroma_me=1 / trellis=2 / 8x8dct=1 / cqm=0 / deadzone=21,11 / fast_pskip=0 / chroma_qp_offset=-5 / threads=12 / lookahead_threads=2 / sliced_threads=0 / nr=0 / decimate=0 / interlaced=0 / bluray_compat=0 / constrained_intra=0 / bframes=8 / b_pyramid=2 / b_adapt=2 / b_bias=0 / direct=3 / weightb=1 / open_gop=0 / weightp=2 / keyint=250 / keyint_min=23 / scenecut=40 / intra_refresh=0 / rc_lookahead=90 / rc=2pass / mbtree=1 / bitrate=4800 / ratetol=1.0 / qcomp=0.60 / qpmin=0 / qpmax=69 / qpstep=4 / cplxblur=20.0 / qblur=0.5 / ip_ratio=1.40 / aq=1:0.80 Language : English Default : Yes Forced : No DURATION : 01:51:32.102000000 NUMBER_OF_FRAMES : 160450 NUMBER_OF_BYTES : 4012005840 _STATISTICS_WRITING_APP : mkvmerge v7.3.0 ('Nouages') 32bit built on Oct 22 2014 18:44:01 _STATISTICS_WRITING_DATE_UTC : 2016-02-03 15:49:27 _STATISTICS_TAGS : BPS DURATION NUMBER_OF_FRAMES NUMBER_OF_BYTES Audio #2 ID : 2 Format : AC-3 Format/Info : Audio Coding 3 Mode extension : CM (complete main) Format settings, Endianness : Big Codec ID : A_AC3 Duration : 1h 51mn Bit rate mode : Constant Bit rate : 448 Kbps Channel(s) : 6 channels Channel positions : Front: L C R, Side: L R, LFE Sampling rate : 48.0 KHz Bit depth : 16 bits Compression mode : Lossy Stream size : 357 MiB (8%) Default : Yes Forced : No Audio #3 ID : 3 Format : AC-3 Format/Info : Audio Coding 3 Mode extension : CM (complete main) Format settings, Endianness : Big Codec ID : A_AC3 Duration : 1h 51mn Bit rate mode : Constant Bit rate : 384 Kbps Channel(s) : 6 channels Channel positions : Front: L C R, Side: L R, LFE Sampling rate : 48.0 KHz Bit depth : 16 bits Compression mode : Lossy Stream size : 306 MiB (7%) Default : No Forced : No

krutor.org

Скачать торрент Пэн: Путешествие в Нетландию / Pan (2015) BDRip 720p

Информация о фильмеНазвание: Пэн: Путешествие в НетландиюОригинальное название: PanГод выхода: 2015Жанр: фэнтези, приключения, семейныйРежиссер: Джо Райт / Joe WrightВ ролях: Хью Джекман, Леви Миллер, Гаррет Хедлунд, Руни Мара, Адиль Ахтар, Нонсо Анози, Аманда Сайфред, Кэти Бёрк, Льюис МакДугалл, Кара Делевинь, Тхэ-чжу На, Джек Чарльз

О фильме: История о сироте, который попал в волшебную Нетландию, где его поджидали опасные приключения. Там он понял, что его судьба - стать героем, который навсегда останется известен под именем Питер Пэн.

Страна: США, Великобритания, АвстралияПродолжительность: 01:51:32Перевод: Профессиональный (полное дублирование) [Лицензия]

ФайлКодек: x264Качество: BDRip 720pВидео: 1280х534 (2.40:1), 23,976 fps, AVC (H.264), [email protected], ~4800 Kbps avg, 0.293 bit/pixelАудио #1: 48 kHz, AC3 Dolby Digital, 3/2 (L,C,R,l,r) + LFE ch, ~448.00 kbps avg | RUS Аудио #2: 48 kHz, AC3 Dolby Digital, 3/2 (L,C,R,l,r) + LFE ch, ~384.00 kbps avg | ENG

MI

General Unique ID : 228141644625176672923166082299558321810 (0xABA27B84C314CB4FB71E3439B6335E92) Complete name : J:СборкаПэн. Путешествие в Нетландию. - Pan.2015.720p.BluRay.x264.mkv Format : Matroska Format version : Version 4 / Version 2 File size : 4.39 GiB Duration : 1h 51mn Overall bit rate : 5 630 Kbps Encoded date : UTC 2016-02-03 15:49:27 Writing application : mkvmerge v7.3.0 ('Nouages') 32bit built on Oct 22 2014 18:44:01 Writing library : libebml v1.3.0 + libmatroska v1.4.1 DURATION : 01:51:32.096000000 NUMBER_OF_FRAMES : 209128 NUMBER_OF_BYTES : 374757376 _STATISTICS_WRITING_APP : mkvmerge v7.3.0 ('Nouages') 32bit built on Oct 22 2014 18:44:01 _STATISTICS_WRITING_DATE_UTC : 2016-02-03 15:49:27 _STATISTICS_TAGS : BPS DURATION NUMBER_OF_FRAMES NUMBER_OF_BYTES Video #1 ID : 1 Format : AVC Format/Info : Advanced Video Codec Format profile : [email protected] Format settings, CABAC : Yes Format settings, ReFrames : 12 frames Codec ID : V_MPEG4/ISO/AVC Duration : 1h 51mn Bit rate : 4 800 Kbps Width : 1 280 pixels Height : 534 pixels Display aspect ratio : 2.40:1 Frame rate mode : Constant Frame rate : 23.976 fps Color space : YUV Chroma subsampling : 4:2:0 Bit depth : 8 bits Scan type : Progressive Bits/(Pixel*Frame) : 0.293 Stream size : 3.65 GiB (83%) Writing library : x264 core 130 r2273 b3065e6 Encoding settings : cabac=1 / ref=12 / deblock=1:-3:-3 / analyse=0x3:0x113 / me=umh / subme=11 / psy=1 / psy_rd=1.00:0.05 / mixed_ref=1 / me_range=32 / chroma_me=1 / trellis=2 / 8x8dct=1 / cqm=0 / deadzone=21,11 / fast_pskip=0 / chroma_qp_offset=-5 / threads=12 / lookahead_threads=2 / sliced_threads=0 / nr=0 / decimate=0 / interlaced=0 / bluray_compat=0 / constrained_intra=0 / bframes=8 / b_pyramid=2 / b_adapt=2 / b_bias=0 / direct=3 / weightb=1 / open_gop=0 / weightp=2 / keyint=250 / keyint_min=23 / scenecut=40 / intra_refresh=0 / rc_lookahead=90 / rc=2pass / mbtree=1 / bitrate=4800 / ratetol=1.0 / qcomp=0.60 / qpmin=0 / qpmax=69 / qpstep=4 / cplxblur=20.0 / qblur=0.5 / ip_ratio=1.40 / aq=1:0.80 Language : English Default : Yes Forced : No DURATION : 01:51:32.102000000 NUMBER_OF_FRAMES : 160450 NUMBER_OF_BYTES : 4012005840 _STATISTICS_WRITING_APP : mkvmerge v7.3.0 ('Nouages') 32bit built on Oct 22 2014 18:44:01 _STATISTICS_WRITING_DATE_UTC : 2016-02-03 15:49:27 _STATISTICS_TAGS : BPS DURATION NUMBER_OF_FRAMES NUMBER_OF_BYTES Audio #2 ID : 2 Format : AC-3 Format/Info : Audio Coding 3 Mode extension : CM (complete main) Format settings, Endianness : Big Codec ID : A_AC3 Duration : 1h 51mn Bit rate mode : Constant Bit rate : 448 Kbps Channel(s) : 6 channels Channel positions : Front: L C R, Side: L R, LFE Sampling rate : 48.0 KHz Bit depth : 16 bits Compression mode : Lossy Stream size : 357 MiB (8%) Default : Yes Forced : No Audio #3 ID : 3 Format : AC-3 Format/Info : Audio Coding 3 Mode extension : CM (complete main) Format settings, Endianness : Big Codec ID : A_AC3 Duration : 1h 51mn Bit rate mode : Constant Bit rate : 384 Kbps Channel(s) : 6 channels Channel positions : Front: L C R, Side: L R, LFE Sampling rate : 48.0 KHz Bit depth : 16 bits Compression mode : Lossy Stream size : 306 MiB (7%) Default : No Forced : No

mrutor.org

Скачать торрент Пэн: Путешествие в Нетландию / Pan (2015) BDRip-AVC от New-Team

Пэн: Путешествие в НетландиюPan

«У каждой легенды есть своё начало»

Страна: США, Великобритания, АвстралияЖанр: фэнтези, приключения, семейный

Год выпуска: 2015Продолжительность: 01:51:32

Перевод: Профессиональный (полное дублирование) [Лицензия Blu-ray CEE]Cубтитры: Русские (форсированные, полные), украинские (форсированные), английские (полные, SDH)Оригинальная аудиодорожка: Английский

Режиссер: Джо Райт / Joe Wright

В ролях: Хью Джекман, Леви Миллер, Гаррет Хедлунд, Руни Мара, Адиль Ахтар, Нонсо Анози, Аманда Сайфред, Кэти Бёрк, Льюис МакДугалл, Кара Делевинь, Тхэ-чжу На, Джек Чарльз

Описание: История о сироте, который попал в волшебную Нетландию, где его поджидали опасные приключения. Там он понял, что его судьба - стать героем, который навсегда останется известен под именем Питер Пэн.

Релиз:

Автор рипа: Stalker oK

Сэмпл

Качество видео: BDRip-AVC [BLUEBIRD / Blu-ray Disc / 1080p]Формат видео: MKVВидео кодек: AVCАудио кодек: AC3, AACВидео: 2095 Кбит/сек, 1032*430 (2,40:1), в 23,976 (24000/1001) кадра/сек, AVCАудио #1: Russian, 448 Кбит/сек, 48,0 КГц, 6 каналов, AC-3Аудио #2: English, 256 Кбит/сек, 48,0 КГц, 6 каналов, AAC (LC)Навигация по главам: есть

MediaInfo

Общее Уникальный идентификатор : 219133849158077215589928694063030839340 (0xA4DBA4E9C851143AAF19DCAB6A6BA82C) Полное имя : M:RipsPan1Pan.2015.BDRip-AVC.Dub.2.18Gb.stalkerok.new-team.mkv Формат : Matroska Версия формата : Version 4 / Version 2 Размер файла : 2,18 Гбайт Продолжительность : 1 ч. 51 м. Общий поток : 2799 Кбит/сек Название фильма : Pan (2015) (New-Team) (Rip by Stalker oK) Дата кодирования : UTC 2016-02-02 19:35:57 Программа кодирования : mkvmerge v8.6.1 ('Flying') 64bit Библиотека кодирования : libebml v1.3.3 + libmatroska v1.4.4

Видео Идентификатор : 1 Формат : AVC Формат/Информация : Advanced Video Codec Профиль формата : [email protected] Параметр CABAC формата : Да Параметр ReFrames формата : 14 кадров Идентификатор кодека : V_MPEG4/ISO/AVC Продолжительность : 1 ч. 51 м. Битрейт : 2095 Кбит/сек Ширина : 1032 пикселя Высота : 430 пикселей Соотношение сторон : 2,40:1 Режим частоты кадров : Постоянный Частота кадров : 23,976 (24000/1001) кадра/сек Цветовое пространство : YUV Субдискретизация насыщенности : 4:2:0 Битовая глубина : 8 бит Тип развёртки : Прогрессивная Бит/(Пиксели*Кадры) : 0.197 Размер потока : 1,63 Гбайт (75%) Заголовок : Pan (2015) (New-Team) (Rip by Stalker oK) Библиотека кодирования : x264 core 148 r2638kMod 7599210 Настройки программы : cabac=1 / ref=14 / deblock=1:-3:-3 / analyse=0x3:0x133 / me=umh / subme=11 / psy=1 / fade_compensate=0.00 / psy_rd=1.00:0.10 / mixed_ref=1 / me_range=48 / chroma_me=1 / trellis=2 / 8x8dct=1 / cqm=0 / deadzone=21,11 / fast_pskip=0 / chroma_qp_offset=-3 / threads=12 / lookahead_threads=3 / sliced_threads=0 / nr=0 / decimate=0 / interlaced=0 / bluray_compat=0 / constrained_intra=0 / fgo=0 / bframes=15 / b_pyramid=2 / b_adapt=2 / b_bias=0 / direct=3 / weightb=1 / open_gop=0 / weightp=2 / keyint=240 / keyint_min=23 / scenecut=40 / intra_refresh=0 / rc_lookahead=60 / rc=2pass / mbtree=0 / bitrate=2095 / ratetol=1.0 / qcomp=0.70 / qpmin=0 / qpmax=69 / qpstep=4 / cplxblur=20.0 / qblur=0.5 / vbv_maxrate=50000 / vbv_bufsize=62500 / nal_hrd=none / filler=0 / ip_ratio=1.40 / pb_ratio=1.30 / aq=3:0.90 Default : Да Forced : Нет

Аудио #1 Идентификатор : 2 Формат : AC-3 Формат/Информация : Audio Coding 3 Расширение режима : CM (complete main) Параметр Endianness формата : Big Идентификатор кодека : A_AC3 Продолжительность : 1 ч. 51 м. Вид битрейта : Постоянный Битрейт : 448 Кбит/сек Каналы : 6 каналов Расположение каналов : Front: L C R, Side: L R, LFE Частота : 48,0 КГц Частота кадров : 31,250 кадров/сек (1536 spf) Метод сжатия : С потерями Размер потока : 357 Мбайт (16%) Язык : Russian Default : Да Forced : Нет

Аудио #2 Идентификатор : 3 Формат : AAC Формат/Информация : Advanced Audio Codec Профиль формата : LC Идентификатор кодека : A_AAC Продолжительность : 1 ч. 51 м. Битрейт : 256 Кбит/сек Каналы : 6 каналов Расположение каналов : Front: L C R, Side: L R, LFE Частота : 48,0 КГц Частота кадров : 46,875 кадров/сек (1024 spf) Метод сжатия : С потерями Задержка видео : 9 мс. Размер потока : 204 Мбайт (9%) Язык : English Default : Нет Forced : Нет

Текст #1 Идентификатор : 4 Формат : UTF-8 Идентификатор кодека : S_TEXT/UTF8 Идентификатор кодека/Информация : UTF-8 Plain Text Продолжительность : 1 ч. 41 м. Битрейт : 0 бит/сек Count of elements : 16 Размер потока : 664 байт (0%) Заголовок : forced Язык : Russian Default : Да Forced : Нет

Текст #2 Идентификатор : 5 Формат : UTF-8 Идентификатор кодека : S_TEXT/UTF8 Идентификатор кодека/Информация : UTF-8 Plain Text Продолжительность : 1 ч. 42 м. Битрейт : 67 бит/сек Count of elements : 1189 Размер потока : 50,6 Кбайт (0%) Заголовок : full Язык : Russian Default : Нет Forced : Нет

Текст #3 Идентификатор : 6 Формат : UTF-8 Идентификатор кодека : S_TEXT/UTF8 Идентификатор кодека/Информация : UTF-8 Plain Text Продолжительность : 1 ч. 41 м. Битрейт : 0 бит/сек Count of elements : 16 Размер потока : 660 байт (0%) Заголовок : forced Язык : Ukrainian Default : Нет Forced : Нет

Текст #4 Идентификатор : 7 Формат : UTF-8 Идентификатор кодека : S_TEXT/UTF8 Идентификатор кодека/Информация : UTF-8 Plain Text Продолжительность : 1 ч. 42 м. Битрейт : 43 бит/сек Count of elements : 1220 Размер потока : 32,5 Кбайт (0%) Заголовок : Full Язык : English Default : Нет Forced : Нет

Текст #5 Идентификатор : 8 Формат : UTF-8 Идентификатор кодека : S_TEXT/UTF8 Идентификатор кодека/Информация : UTF-8 Plain Text Продолжительность : 1 ч. 42 м. Битрейт : 44 бит/сек Count of elements : 1243 Размер потока : 33,7 Кбайт (0%) Заголовок : SDH Язык : English Default : Нет Forced : Нет

Меню 00:00:00.000 : en:Chapter 1 00:10:28.419 : en:Chapter 2 00:19:45.851 : en:Chapter 3 00:31:07.282 : en:Chapter 4 00:39:14.060 : en:Chapter 5 00:48:27.862 : en:Chapter 6 01:00:07.562 : en:Chapter 7 01:09:29.372 : en:Chapter 8 01:20:12.807 : en:Chapter 9 01:30:02.897 : en:Chapter 10 01:39:51.026 : en:Chapter 11 01:43:05.888 : en:Chapter 12

mrutor.org

Скачать торрент Пэн: Путешествие в Нетландию / Pan (2015) BDRip 1080p от Ash61 | 3D-Video | halfOU

General Unique ID : 252544417101337097547053612656544769680 (0xBDFE4917BAAB56918F97A2B0131CE690) Complete name : E:Pan(2015)3D-halfOU(Ash61)Pan(2015)3D-halfOU(Ash61).mkv Format : Matroska Format version : Version 2 File size : 10.4 GiB Duration : 1h 51mn Overall bit rate : 13.3 Mbps Movie name : Пэн: Путешествие в Нетландию / Pan (2015) в 3Д Encoded date : UTC 2016-02-02 20:16:54 Writing application : mkvmerge v5.8.0 ('No Sleep / Pillow') built on Sep 2 2012 15:37:04 Writing library : libebml v1.2.3 + libmatroska v1.3.0

Video ID : 1 Format : AVC Format/Info : Advanced Video Codec Format profile : [email protected] Format settings, CABAC : Yes Format settings, ReFrames : 4 frames Codec ID : V_MPEG4/ISO/AVC Duration : 1h 51mn Bit rate : 11.6 Mbps Width : 1 920 pixels Height : 1 080 pixels Display aspect ratio : 16:9 Frame rate mode : Constant Frame rate : 23.976 fps Color space : YUV Chroma subsampling : 4:2:0 Bit depth : 8 bits Scan type : Progressive Bits/(Pixel*Frame) : 0.233 Stream size : 9.03 GiB (87%) Title : BDRip by Ash61 Writing library : x264 core 146 r2538 121396c Encoding settings : cabac=1 / ref=4 / deblock=1:-3:-3 / analyse=0x3:0x113 / me=umh / subme=10 / psy=1 / psy_rd=1.00:0.00 / mixed_ref=1 / me_range=32 / chroma_me=1 / trellis=2 / 8x8dct=1 / cqm=0 / deadzone=21,11 / fast_pskip=1 / chroma_qp_offset=-2 / threads=12 / lookahead_threads=2 / sliced_threads=0 / nr=0 / decimate=1 / interlaced=0 / bluray_compat=0 / constrained_intra=0 / bframes=9 / b_pyramid=2 / b_adapt=2 / b_bias=0 / direct=3 / weightb=1 / open_gop=0 / weightp=2 / keyint=250 / keyint_min=23 / scenecut=40 / intra_refresh=0 / rc_lookahead=60 / rc=crf / mbtree=1 / crf=16.0 / qcomp=0.70 / qpmin=0 / qpmax=69 / qpstep=4 / vbv_maxrate=40000 / vbv_bufsize=30000 / crf_max=0.0 / nal_hrd=none / filler=0 / frame-packing=4 / ip_ratio=1.40 / aq=1:0.70 Language : English Default : Yes Forced : No

Audio #1 ID : 2 Format : AC-3 Format/Info : Audio Coding 3 Mode extension : CM (complete main) Format settings, Endianness : Big Codec ID : A_AC3 Duration : 1h 51mn Bit rate mode : Constant Bit rate : 640 Kbps Channel(s) : 6 channels Channel positions : Front: L C R, Side: L R, LFE Sampling rate : 48.0 KHz Bit depth : 16 bits Compression mode : Lossy Stream size : 511 MiB (5%) Title : Дубляж - BD CEE Language : Russian Default : Yes Forced : No

Audio #2 ID : 3 Format : AC-3 Format/Info : Audio Coding 3 Format profile : Dolby Digital Mode extension : CM (complete main) Format settings, Endianness : Big Codec ID : A_AC3 Duration : 1h 51mn Bit rate mode : Constant Bit rate : 192 Kbps Channel(s) : 2 channels Channel positions : Front: L R Sampling rate : 48.0 KHz Bit depth : 16 bits Compression mode : Lossy Stream size : 153 MiB (1%) Title : Дубляж - iTunes Language : Ukrainian Default : No Forced : No

Audio #3 ID : 4 Format : AC-3 Format/Info : Audio Coding 3 Mode extension : CM (complete main) Format settings, Endianness : Big Codec ID : A_AC3 Duration : 1h 51mn Bit rate mode : Constant Bit rate : 640 Kbps Channel(s) : 6 channels Channel positions : Front: L C R, Side: L R, LFE Sampling rate : 48.0 KHz Bit depth : 16 bits Compression mode : Lossy Stream size : 511 MiB (5%) Title : Original BD 3D Language : English Default : No Forced : No

Text #1 ID : 5 Format : UTF-8 Codec ID : S_TEXT/UTF8 Codec ID/Info : UTF-8 Plain Text Title : Форсированные Language : Russian Default : Yes Forced : No

Text #2 ID : 6 Format : UTF-8 Codec ID : S_TEXT/UTF8 Codec ID/Info : UTF-8 Plain Text Title : Полные Language : Russian Default : No Forced : No

Text #3 ID : 7 Format : UTF-8 Codec ID : S_TEXT/UTF8 Codec ID/Info : UTF-8 Plain Text Title : Форсированные Language : Ukrainian Default : No Forced : No

Text #4 ID : 8 Format : UTF-8 Codec ID : S_TEXT/UTF8 Codec ID/Info : UTF-8 Plain Text Title : Full Language : English Default : No Forced : No

Text #5 ID : 9 Format : UTF-8 Codec ID : S_TEXT/UTF8 Codec ID/Info : UTF-8 Plain Text Title : SDH Language : English Default : No Forced : No

Menu 00:00:00.000 : :1 00:10:28.419 : :2 00:19:45.851 : :3 00:31:07.282 : :4 00:39:14.060 : :5 00:48:27.863 : :6 01:00:07.562 : :7 01:09:29.374 : :8 01:20:12.808 : :9 01:30:02.897 : :10 01:39:51.027 : :11 01:43:05.888 : :12

mrutor.org

Скачать торрент Пэн: Путешествие в Нетландию / Pan (2015) BDRip-AVC от New-Team

Пэн: Путешествие в НетландиюPan

«У каждой легенды есть своё начало»

Страна: США, Великобритания, АвстралияЖанр: фэнтези, приключения, семейный

Год выпуска: 2015Продолжительность: 01:51:32

Перевод: Профессиональный (полное дублирование) [Лицензия Blu-ray CEE]Cубтитры: Русские (форсированные, полные), украинские (форсированные), английские (полные, SDH)Оригинальная аудиодорожка: Английский

Режиссер: Джо Райт / Joe Wright

В ролях: Хью Джекман, Леви Миллер, Гаррет Хедлунд, Руни Мара, Адиль Ахтар, Нонсо Анози, Аманда Сайфред, Кэти Бёрк, Льюис МакДугалл, Кара Делевинь, Тхэ-чжу На, Джек Чарльз

Описание: История о сироте, который попал в волшебную Нетландию, где его поджидали опасные приключения. Там он понял, что его судьба - стать героем, который навсегда останется известен под именем Питер Пэн.

Релиз:

Автор рипа: Stalker oK

Сэмпл

Качество видео: BDRip-AVC [BLUEBIRD / Blu-ray Disc / 1080p]Формат видео: MKVВидео кодек: AVCАудио кодек: AC3, AACВидео: 2095 Кбит/сек, 1032*430 (2,40:1), в 23,976 (24000/1001) кадра/сек, AVCАудио #1: Russian, 448 Кбит/сек, 48,0 КГц, 6 каналов, AC-3Аудио #2: English, 256 Кбит/сек, 48,0 КГц, 6 каналов, AAC (LC)Навигация по главам: есть

MediaInfo

Общее Уникальный идентификатор : 219133849158077215589928694063030839340 (0xA4DBA4E9C851143AAF19DCAB6A6BA82C) Полное имя : M:RipsPan1Pan.2015.BDRip-AVC.Dub.2.18Gb.stalkerok.new-team.mkv Формат : Matroska Версия формата : Version 4 / Version 2 Размер файла : 2,18 Гбайт Продолжительность : 1 ч. 51 м. Общий поток : 2799 Кбит/сек Название фильма : Pan (2015) (New-Team) (Rip by Stalker oK) Дата кодирования : UTC 2016-02-02 19:35:57 Программа кодирования : mkvmerge v8.6.1 ('Flying') 64bit Библиотека кодирования : libebml v1.3.3 + libmatroska v1.4.4

Видео Идентификатор : 1 Формат : AVC Формат/Информация : Advanced Video Codec Профиль формата : [email protected] Параметр CABAC формата : Да Параметр ReFrames формата : 14 кадров Идентификатор кодека : V_MPEG4/ISO/AVC Продолжительность : 1 ч. 51 м. Битрейт : 2095 Кбит/сек Ширина : 1032 пикселя Высота : 430 пикселей Соотношение сторон : 2,40:1 Режим частоты кадров : Постоянный Частота кадров : 23,976 (24000/1001) кадра/сек Цветовое пространство : YUV Субдискретизация насыщенности : 4:2:0 Битовая глубина : 8 бит Тип развёртки : Прогрессивная Бит/(Пиксели*Кадры) : 0.197 Размер потока : 1,63 Гбайт (75%) Заголовок : Pan (2015) (New-Team) (Rip by Stalker oK) Библиотека кодирования : x264 core 148 r2638kMod 7599210 Настройки программы : cabac=1 / ref=14 / deblock=1:-3:-3 / analyse=0x3:0x133 / me=umh / subme=11 / psy=1 / fade_compensate=0.00 / psy_rd=1.00:0.10 / mixed_ref=1 / me_range=48 / chroma_me=1 / trellis=2 / 8x8dct=1 / cqm=0 / deadzone=21,11 / fast_pskip=0 / chroma_qp_offset=-3 / threads=12 / lookahead_threads=3 / sliced_threads=0 / nr=0 / decimate=0 / interlaced=0 / bluray_compat=0 / constrained_intra=0 / fgo=0 / bframes=15 / b_pyramid=2 / b_adapt=2 / b_bias=0 / direct=3 / weightb=1 / open_gop=0 / weightp=2 / keyint=240 / keyint_min=23 / scenecut=40 / intra_refresh=0 / rc_lookahead=60 / rc=2pass / mbtree=0 / bitrate=2095 / ratetol=1.0 / qcomp=0.70 / qpmin=0 / qpmax=69 / qpstep=4 / cplxblur=20.0 / qblur=0.5 / vbv_maxrate=50000 / vbv_bufsize=62500 / nal_hrd=none / filler=0 / ip_ratio=1.40 / pb_ratio=1.30 / aq=3:0.90 Default : Да Forced : Нет

Аудио #1 Идентификатор : 2 Формат : AC-3 Формат/Информация : Audio Coding 3 Расширение режима : CM (complete main) Параметр Endianness формата : Big Идентификатор кодека : A_AC3 Продолжительность : 1 ч. 51 м. Вид битрейта : Постоянный Битрейт : 448 Кбит/сек Каналы : 6 каналов Расположение каналов : Front: L C R, Side: L R, LFE Частота : 48,0 КГц Частота кадров : 31,250 кадров/сек (1536 spf) Метод сжатия : С потерями Размер потока : 357 Мбайт (16%) Язык : Russian Default : Да Forced : Нет

Аудио #2 Идентификатор : 3 Формат : AAC Формат/Информация : Advanced Audio Codec Профиль формата : LC Идентификатор кодека : A_AAC Продолжительность : 1 ч. 51 м. Битрейт : 256 Кбит/сек Каналы : 6 каналов Расположение каналов : Front: L C R, Side: L R, LFE Частота : 48,0 КГц Частота кадров : 46,875 кадров/сек (1024 spf) Метод сжатия : С потерями Задержка видео : 9 мс. Размер потока : 204 Мбайт (9%) Язык : English Default : Нет Forced : Нет

Текст #1 Идентификатор : 4 Формат : UTF-8 Идентификатор кодека : S_TEXT/UTF8 Идентификатор кодека/Информация : UTF-8 Plain Text Продолжительность : 1 ч. 41 м. Битрейт : 0 бит/сек Count of elements : 16 Размер потока : 664 байт (0%) Заголовок : forced Язык : Russian Default : Да Forced : Нет

Текст #2 Идентификатор : 5 Формат : UTF-8 Идентификатор кодека : S_TEXT/UTF8 Идентификатор кодека/Информация : UTF-8 Plain Text Продолжительность : 1 ч. 42 м. Битрейт : 67 бит/сек Count of elements : 1189 Размер потока : 50,6 Кбайт (0%) Заголовок : full Язык : Russian Default : Нет Forced : Нет

Текст #3 Идентификатор : 6 Формат : UTF-8 Идентификатор кодека : S_TEXT/UTF8 Идентификатор кодека/Информация : UTF-8 Plain Text Продолжительность : 1 ч. 41 м. Битрейт : 0 бит/сек Count of elements : 16 Размер потока : 660 байт (0%) Заголовок : forced Язык : Ukrainian Default : Нет Forced : Нет

Текст #4 Идентификатор : 7 Формат : UTF-8 Идентификатор кодека : S_TEXT/UTF8 Идентификатор кодека/Информация : UTF-8 Plain Text Продолжительность : 1 ч. 42 м. Битрейт : 43 бит/сек Count of elements : 1220 Размер потока : 32,5 Кбайт (0%) Заголовок : Full Язык : English Default : Нет Forced : Нет

Текст #5 Идентификатор : 8 Формат : UTF-8 Идентификатор кодека : S_TEXT/UTF8 Идентификатор кодека/Информация : UTF-8 Plain Text Продолжительность : 1 ч. 42 м. Битрейт : 44 бит/сек Count of elements : 1243 Размер потока : 33,7 Кбайт (0%) Заголовок : SDH Язык : English Default : Нет Forced : Нет

Меню 00:00:00.000 : en:Chapter 1 00:10:28.419 : en:Chapter 2 00:19:45.851 : en:Chapter 3 00:31:07.282 : en:Chapter 4 00:39:14.060 : en:Chapter 5 00:48:27.862 : en:Chapter 6 01:00:07.562 : en:Chapter 7 01:09:29.372 : en:Chapter 8 01:20:12.807 : en:Chapter 9 01:30:02.897 : en:Chapter 10 01:39:51.026 : en:Chapter 11 01:43:05.888 : en:Chapter 12

krutor.org


Смотрите также