Торрент бойцовский клуб


rutor.org :: Бойцовский клуб / Fight Club (1999) HDRip от NNM-CLUB

Бойцовский клуб / Fight Club (1999) HDRipПроизводство: США, ГерманияЖанр: Триллер, драма, криминал, боевик, экранизация

Режиссер: Дэвид ФинчерАктеры: Эдвард Нортон, Брэд Питт, Хелена Бонем Картер, Мит Лоаф, Зак Гренье, Холт МакКэллани, Джаред Лето, Эйон Бэйли, Ричмонд Аркетт, Дэвид Эндрюс, Джордж Магуайр, Эжени Бондюран, Кристина Кэбот

Описание фильма: Нас сковывает страх потерять что-то. Мы боимся сделать первый шаг. Боимся стать лучше. Страдающий бессонницей клерк начинает посещать группы для больных людей, находя в них успокоение. Волею судьбы он встретил Тайлера Дёрдена, торговца мыла, с искаженным пониманием действительности. Образуя Бойцовский клуб, они привлекают людей, желающих избавиться от вечного страха перед кем-то или чем-то. Фильм снят по мотивам романа Чака Паланика «Бойцовский клуб» (Fight Club, 1996).

Релиз от: FAGOT100 (NNM-CLUB)Продолжительность: 02:19:08Качество видео: HDRipПеревод: Авторский (одноголосый, закадровый) А.ГавриловСубтитры: Отсутствуют

Видео: XviD, 720x304 (2.35:1), 23.976 fps, 1 786 Kbps (0.340 bit/pixel)Аудио: AC-3, 48.0 KHz, 6 ch, 448 Kbps, CBR

MediaInfo:

Формат : AVI Формат/Информация : Audio Video Interleave Профиль формата : OpenDML Размер файла : 2,18 Гбайт Продолжительность : 2 ч. 19 м. Общий поток : 2246 Кбит/сек Программа кодирования : VirtualDubMod 1.5.10.3 | www.virtualdub-fr.org || (build 2550/release) Библиотека кодирования : VirtualDubMod build 2550/release

Видео Идентификатор : 0 Формат : MPEG-4 Visual Профиль формата : Advanced [email protected] Параметр BVOP формата : 1 Параметр QPel формата : Нет Параметр GMC формата : Без точки перехода Параметр матрицы формата : Выборочная Идентификатор кодека : XVID Идентификатор кодека/Подсказка : XviD Продолжительность : 2 ч. 19 м. Битрейт : 1786 Кбит/сек Ширина : 720 пикселей Высота : 304 пикселя Соотношение сторон : 2,35:1 Частота кадров : 23,976 кадра/сек Цветовое пространство : YUV Субдискретизация насыщенности : 4:2:0 Битовая глубина : 8 бит Тип развёртки : Прогрессивная Метод сжатия : С потерями Бит/(Пиксели*Кадры) : 0.340 Размер потока : 1,74 Гбайт (80%) Библиотека кодирования : XviD 73

Аудио Идентификатор : 1 Формат : AC-3 Формат/Информация : Audio Coding 3 Расширение режима : CM (complete main) Параметр Endianness формата : Big Идентификатор кодека : 2000 Продолжительность : 2 ч. 19 м. Вид битрейта : Постоянный Битрейт : 448 Кбит/сек Каналы : 6 каналов Расположение каналов : Front: L C R, Side: L R, LFE Частота : 48,0 КГц Битовая глубина : 16 бит Метод сжатия : С потерями Размер потока : 446 Мбайт (20%) Выравнивание : Разделение по промежуткам Продолжительность промежутка : 42 мс. (1,00 видеокадр) Время предзагрузки промежутка : 500 мс.

Скриншоты:

main-rutor.org

rutor.org :: Бойцовский клуб / Fight Club (1999) BDRip-AVC

Информация о фильмеРусское название: Бойцовский клубОригинальное название: Fight ClubСтрана: США, ГерманияПроизводство: Regency EnterprisesГод выпуска: 1999Жанр: триллер, драма, криминал, детектив

Продолжительность: 02:19:08Перевод: ДублированныйОригинальная аудиодорожка: английскаяСубтитры: русские, английскиеНавигация по главам: есть

Режиссер: Дэвид ФинчерСценарий: Джим Улс, Чак Паланик

Актеры: Эдвард Нортон, Брэд Питт, Хелена Бонем Картер, Мит Лоуф, Зэк Гренье, Ричмонд Аркетт, Дэвид Эндрюс, Джордж Магуайр, Эжени Бондюран, Кристина Кэбот

Роли дублировали: Евгений Дятлов, Петр Семак, Татьяна Иванова, Евгений Иванов, Валерий Соловьев

Описание фильма: Терзаемый хронической бессонницей и отчаянно пытающийся вырваться из мучительно скучной жизни клерк встречает некоего Тайлера Дардена, харизматического торговца мылом с извращенной философией. Тайлер уверен, что самосовершенствование — удел слабых, а саморазрушение — единственное, ради чего стоит жить.

Пройдет немного времени, и вот уже главные герои лупят друг друга почем зря на стоянке перед баром, и очищающий мордобой доставляет им высшее блаженство. Приобщая других мужчин к простым радостям физической жестокости, они основывают тайный Бойцовский Клуб, который имеет огромный успех. Но в концовке фильма всех ждет шокирующее открытие, которое может привести к непредсказуемым событиям…

ФайлКачество видео: BDRip Исходник: Blu-rayФормат: MP4 (контейнер m4v)Видео: AVC, [email protected], 1024x432 (2.35:1) at 23.976 fps, AVC at 1967 kbps avg, 0.186 bit/pixelАудио: 48 kHz, AAC, 2ch, ~160 kbps | Russian | Дублированный Аудио: 48 kHz, AAC, 2ch, ~160 kbps | Russian | Профессиональный (многоголосый закадровый) Позитив Аудио: 48 kHz, AAC, 2ch, ~160 Kbps | English | Original

Автор рипа: leonardo 59

MediaInfo

* * * MediaInfo Mac 0.7.33.4 file analysis report. * * * MediaInfo Mac is ©2010 by Diego Massanti - http://mediainfo.massanti.com * * * MediaInfoLib by Jerome Martinez - http://mediainfo.sourceforge.net Created on: 30.01.2013 20:34:14 Московское стандартное время Report for file: Fight Club.1999.iPad.1024x.leonardo59.BDRip.m4v

General / Container Stream #1 Total Video Streams for this File.................1 Total Audio Streams for this File.................3 Total Subtitle Streams for this File..............5 Video Codecs Used.................................AVC Audio Codecs Used.................................AAC LC / AAC LC / AAC LC SubTitle Codecs Used..............................Timed / Timed / Timed / Timed / text Available Sutbitle Languages......................Russian / Russian / Russian / English / File Format.......................................MPEG-4 Play Time.........................................2h 19mn Total File Size...................................2.41 GiB Total Stream BitRate..............................2 478 Kbps

Video Stream #1 Codec (Human Name)................................AVC Codec (FourCC)....................................avc1 Codec [email protected] Frame Width.......................................1 024 pixels Frame Height......................................432 pixels Frame Rate........................................23.976 fps Total Frames......................................200161 Display Aspect Ratio..............................2.35:1 Scan Type.........................................Progressive Color Space.......................................YUV Codec Settings (Summary)..........................CABAC / 12 Ref Frames QF (like Gordian Knot)............................0.186 Codec Settings (CABAC)............................Yes Codec Settings (Reference Frames).................12 Video Stream Length...............................2h 19mn 8s 382ms Video Stream BitRate..............................1 967 Kbps Video Stream BitRate Mode.........................VBR Bit Depth.........................................8 bits Video Stream Size.................................1.91 GiB (79%) Video Encoder.....................................x264 - core 125 r2208 d9d2288 Video Encoder (Settings)..........................cabac=1 / ref=12 / deblock=1:-1:-1 / analyse=0x3:0x133 / me=umh / subme=11 / psy=1 / psy_rd=0.95:0.05 / mixed_ref=1 / me_range=32 / chroma_me=1 / trellis=2 / 8x8dct=1 / cqm=0 / deadzone=21,11 / fast_pskip=0 / chroma_qp_offset=-3 / threads=3 / lookahead_threads=1 / sliced_threads=0 / nr=0 / decimate=1 / interlaced=0 / bluray_compat=0 / constrained_intra=0 / bframes=8 / b_pyramid=2 / b_adapt=2 / b_bias=0 / direct=1 / weightb=1 / open_gop=0 / weightp=2 / keyint=250 / keyint_min=23 / scenecut=40 / intra_refresh=0 / rc=crf / mbtree=0 / crf=17.0 / qcomp=0.60 / qpmin=0 / qpmax=69 / qpstep=4 / ip_ratio=1.40 / pb_ratio=1.30 / aq=2:1.00 Date of Original Encoding.........................UTC 2013-01-23 18:29:39 Audio Stream #1 Codec.............................................AAC Codec (FourCC)....................................40 Audio Stream Length...............................2h 19mn 8s 416ms Audio Stream BitRate..............................179 Kbps Audio Stream BitRate Mode.........................VBR Number of Audio Channels..........................2 Audio Channel's Positions.........................Front: L R Sampling Rate.....................................48.0 KHz Audio Stream Size.................................178 MiB (7%) Audio Stream Language.............................Russian Date of Original Encoding.........................UTC 2013-01-30 16:55:58 Audio Stream #2 Codec.............................................AAC Codec (FourCC)....................................40 Audio Stream Length...............................2h 19mn 8s 416ms Audio Stream BitRate..............................152 Kbps Audio Stream BitRate Mode.........................VBR Number of Audio Channels..........................2 Audio Channel's Positions.........................Front: L R Sampling Rate.....................................48.0 KHz Audio Stream Size.................................151 MiB (6%) Audio Stream Language.............................Russian Date of Original Encoding.........................UTC 2013-01-30 16:55:58 Audio Stream #3 Codec.............................................AAC Codec (FourCC)....................................40 Audio Stream Length...............................2h 19mn 8s 416ms Audio Stream BitRate..............................170 Kbps Audio Stream BitRate Mode.........................VBR Number of Audio Channels..........................2 Audio Channel's Positions.........................Front: L R Sampling Rate.....................................48.0 KHz Audio Stream Size.................................169 MiB (7%) Audio Stream Language.............................English Date of Original Encoding.........................UTC 2013-01-30 16:55:58 Subtitle Stream #1 Language..........................................Russian Format............................................Timed text Codec ID..........................................tx3g Subtitle Stream #2 Language..........................................Russian Format............................................Timed text Codec ID..........................................tx3g Subtitle Stream #3 Language..........................................Russian Format............................................Timed text Codec ID..........................................tx3g Subtitle Stream #4 Language..........................................English Format............................................Timed text Codec ID..........................................tx3g Subtitle Stream #5 Format............................................Apple text Codec ID..........................................text Menu / Chapters Stream #1

iTunes MetaTag

Screenwriters: Джим Улс, Чак Паланик Producers: Росс Грэйсон Белл, Чен Чаффин, Арт Линсон Director: Дэвид Финчер Cast: Эдвард Нортон, Брэд Питт, Хелена Бонем Картер, Мит Лоуф, Зэк Гренье, Ричмонд Аркетт, Дэвид Эндрюс, Джордж Магуайр, Эжени Бондюран, Кристина Кэбот Rating: 5 Long Deion: Терзаемый хронической бессонницей и отчаянно пытающийся вырваться из мучительно скучной жизни клерк встречает некоего Тайлера Дардена, харизматического торговца мылом с извращенной философией. Тайлер уверен, что самосовершенствование — удел слабых, а саморазрушение — единственное, ради чего стоит жить. Deion: Терзаемый хронической бессонницей и отчаянно пытающийся вырваться из мучительно скучной жизни клерк встречает некоего Тайлера Дардена, харизматического торговца мылом с извращенной философией. Тайлер уверен, что самосовершенствование — удел слабых, а саморазрушение — единственное, ради чего стоит жить. Release Date: 1999-09-10 Genre: Drama Artist: Дэвид Финчер Name: Бойцовский клуб

main-rutor.org

rutor.org :: Бойцовский клуб / Fight Club (1999) HDRip от NNM-CLUB

Бойцовский клуб / Fight Club (1999) HDRipПроизводство: США, ГерманияЖанр: Триллер, драма, криминал, боевик, экранизация

Режиссер: Дэвид ФинчерАктеры: Эдвард Нортон, Брэд Питт, Хелена Бонем Картер, Мит Лоаф, Зак Гренье, Холт МакКэллани, Джаред Лето, Эйон Бэйли, Ричмонд Аркетт, Дэвид Эндрюс, Джордж Магуайр, Эжени Бондюран, Кристина Кэбот

Описание фильма: Нас сковывает страх потерять что-то. Мы боимся сделать первый шаг. Боимся стать лучше. Страдающий бессонницей клерк начинает посещать группы для больных людей, находя в них успокоение. Волею судьбы он встретил Тайлера Дёрдена, торговца мыла, с искаженным пониманием действительности. Образуя Бойцовский клуб, они привлекают людей, желающих избавиться от вечного страха перед кем-то или чем-то. Фильм снят по мотивам романа Чака Паланика «Бойцовский клуб» (Fight Club, 1996).

Релиз от: FAGOT100 (NNM-CLUB)Продолжительность: 02:19:08Качество видео: HDRipПеревод: Авторский (одноголосый, закадровый) В.Завгородний (Присутствует ненормативная лексика!)Субтитры: Отсутствуют

Видео: XviD, 720x304 (2.35:1), 23.976 fps, 1 786 Kbps (0.340 bit/pixel)Аудио: AC-3, 48.0 KHz, 6 ch, 448 Kbps, CBR

MediaInfo:

Формат : AVI Формат/Информация : Audio Video Interleave Профиль формата : OpenDML Размер файла : 2,18 Гбайт Продолжительность : 2 ч. 19 м. Общий поток : 2246 Кбит/сек Программа кодирования : VirtualDubMod 1.5.10.3 | www.virtualdub-fr.org || (build 2550/release) Библиотека кодирования : VirtualDubMod build 2550/release

Видео Идентификатор : 0 Формат : MPEG-4 Visual Профиль формата : Advanced [email protected] Параметр BVOP формата : 1 Параметр QPel формата : Нет Параметр GMC формата : Без точки перехода Параметр матрицы формата : Выборочная Идентификатор кодека : XVID Идентификатор кодека/Подсказка : XviD Продолжительность : 2 ч. 19 м. Битрейт : 1786 Кбит/сек Ширина : 720 пикселей Высота : 304 пикселя Соотношение сторон : 2,35:1 Частота кадров : 23,976 кадра/сек Цветовое пространство : YUV Субдискретизация насыщенности : 4:2:0 Битовая глубина : 8 бит Тип развёртки : Прогрессивная Метод сжатия : С потерями Бит/(Пиксели*Кадры) : 0.340 Размер потока : 1,74 Гбайт (80%) Библиотека кодирования : XviD 73

Аудио Идентификатор : 1 Формат : AC-3 Формат/Информация : Audio Coding 3 Расширение режима : CM (complete main) Параметр Endianness формата : Big Идентификатор кодека : 2000 Продолжительность : 2 ч. 19 м. Вид битрейта : Постоянный Битрейт : 448 Кбит/сек Каналы : 6 каналов Расположение каналов : Front: L C R, Side: L R, LFE Частота : 48,0 КГц Битовая глубина : 16 бит Метод сжатия : С потерями Размер потока : 446 Мбайт (20%) Выравнивание : Разделение по промежуткам Продолжительность промежутка : 42 мс. (1,00 видеокадр) Время предзагрузки промежутка : 500 мс.

Скриншоты:

main-rutor.org

rutor.org :: Бойцовский клуб / Fight Club (1999) BDRip 720p

Бойцовский клуб / Fight Club (1999) BDRip [720p] [hand made 60fps]

Год выпуска: 1999Жанр: Триллер, Криминал, ДрамаПроизводство: СШАОписание фильма:

Терзаемый хронической бессонницей и отчаянно пытающийся вырваться из мучительно скучной жизни, клерк встречает некоего Тайлера Дардена, харизматического торговца мылом с извращенной философией. Тайлер уверен, что самосовершенствование — удел слабых, а саморазрушение — единственное, ради чего стоит жить.

Пройдет немного времени, и вот уже главные герои лупят друг друга почем зря на стоянке перед баром, и очищающий мордобой доставляет им высшее блаженство. Приобщая других мужчин к простым радостям физической жестокости, они основывают тайный Бойцовский Клуб, который имеет огромный успех. Но в концовке фильма всех ждет шокирующее открытие, которое может привести к непредсказуемым событиям…

Режиссер: Дэвид ФинчерАктеры: Эдвард Нортон, Брэд Питт, Хелена Бонем Картер, Мит Лоаф, Зэк Гренье, Холт МакКэллани, Джаред Лето, Эйон Бэйли, Ричмонд Аркетт, Дэвид Эндрюс

Продолжительность: 02:19:08Качество видео: BDRipПеревод: ДублированныйЯзык субтитров: Rus (форс.), Rus (полные), Eng (полные)Вид субтитров: Вшитые

Автор рипа: Tiber​iumsu​n69

Видеокодек: MPEG-4 AVC/H.264Битрейт видео: ~10000 kb/sРазмер кадра: 1280*536Аудио 1 Русский: AC3 5.1, 640 kb/sАудио 2 Английский: AC3 5.1, 640 kb/s

Зарубежные фильмы в 60 FPS

✔ Внимание!

Перед скачиванием обязательно проверьте Сэмплы на своем оборудовании.

✔ Как сделать hand made 60fps

Инструкция приведенная ниже позволяет сделать искусственно из 23-30fps (кадров в секунду) в 60-120fps.Краткое описание достоиств и недостатков

Плюсы 1.Высокая плавность картинки. 2.Универсальность в проигрывании данного видео почти на любом дисплее (ЖК , ЭЛТ) и устройстве (ПК, Стационарном медиаплеере, Ноутбуке, ТВ, Планшетнике, Электронной книге, Смартфоне. 3.Минимальные требования к просмотру готового видео.Экран с поддержкой разрешения 576p-720p-1080p и частотой 60гц.Одноядерный ЦП с частотой 4000мгц.Оперативной памяти для проигрывателя 300мб.

pic

Минус 1.Высокая нагрузка на ЦП во время кодировки.

Внимание!

Данный метод съедает в 2,5 раза больше ресурсов ЦП чем при стандартной кодировки BDrip.Поэтому для стабильной кодировки необходимо иметь хорошее охлаждение.Иначе возможны сбои , а в дальнейшем и отказ работы ЦП.

Совет для тех кто все-таки решился на это Начните с кодировки dvd5, dvd9 до dvdrip-ов.На это потребуется меньше всего ресурсов.Требования для кодировки К сожалению у каждого они будут индивидуальные.

Мои параметры: ЦП-AMD-FX-8350 8 ядер 3700мгц (Снизил из-за 30 градусной жары) Оперативная память-AMD AP38G1860U2K 2133мгц (Dual chanel) (Разогнал) SSD-Corsair CSSD-F128GBGS-BK 128 гб Мфт.Плата-asrock fm2a75 pro4 Видеокарта-MSI GeForce GTX 460 900 мгц ядро, 2100 мгц память (разогнал) БП-Thermaltake Litepower 600W

Программы необходимые для кодировки1.Xvid4psp 5.10.330.0 2.Плагин mvtools 3.SVP 4.MKVToolnix 64-bit , 4.MKVToolnix 32-bit 5.K-Lite codec packПодготовка системы 1.Установите k-lite с теме же параметрами.Перезагрузите windows 7. 2.Скачать SVP и установить.Перезагрузка windows 7 3.Проверка видео через встроенный MPC в папке с SVP. 4.Скачиваем XviD4PSP и полностью устанавливаем. 5. Скопировать новый mvtools2.dll в XviD4PSP5dllsAviSynthpluginsmvtools2.dll и в %program files%avisynthplugins 6.Проверка Скрипта для xvid4psp. 6.Установите mkvmerge.Подготовка видео 1.Скачайте предварительно видео или сэмпл с нужными для вас разрешениями (480p, 576p,720p,1080p) и количеством кадров в секунду (23-24-25-29-30fps) (с них будете делать скрипты). 2.Скачайте видео которое собираетесь кодировать dvd5,dvd9 или BDremux,HD-DVDremux,blu-ray. 3.Через mrvmerge извлеките только видео из dvd5,dvd9 или BDremux,HD-DVDremux,blu-ray.Файл должен получиться при этом один (mkv).Подготовка скрипта-фильтра 1.Запустите предварительное видео на MPC с КОНЕЧНЫМ для вас разрешением (480p, 576p,720p,1080p) и с совпадающей , с вашим начальным видео, НАЧАЛЬНОЙ частотой кадров в секунду (23-24-25-29-30fps).Если эти параметры не совпадут то после зодания скрипта и в дальнейшем кодировки возможна рассинхронизация между звуком и видео! 2.Проверьте стабильно ли и плавно воспроизводится предварительное видео на MPC с использованием SVP.Если тормозит , то поиграйте с параметрами профиля до тех пор пока видео не станет совпадать с частотой монитора (60 гц), без ореолов, подтормаживаний и критической нагрузкой на ЦП в районе 60-70%. 3.Как только видео станет оптимально плавным и будет оптимально нагружать ЦП делайте скрипт для xvid4psp.Перед созданием скрипта включите OSD в SVP и запишите ту конечную частоту которая высветится на MPC плеере. pic Для создания скрипта найдите в работающем SVP строку Сформировать-AVS-фильтр для xvid4psp5 и нажимайте на нее. pic 4.После сообщения что скрипт готов pic выключайте MPC и SVP.Подготовка xvid4psp 1.Запустите xvid4psp. 2.Формат по усмотрению (рекомендую MKV). 3.В разделе Фильтр должен появиться параметр к примеру ([email protected]). pic 4.Параметр Кодировании видео ставьте такой какой обычно используете при стандартном создании Рипа.Чтобы сохранить качество. 5.Кодирование звука по усмотрению (рекомендую AC3 640k Quality). 6.Сверху в настройках включите авто кроп для всех файлов. pic Настройки-Глобальные настройки поставьте галочку на пункте (сначала кроп потом фильтрация). pic Параметры кодировки для x264 1080p 60fps. --crf 18.0 --preset medium --profile high --level 4.1 --ref 4 --aq-strength 0.9 --deblock -1:-1 --merange 24 --no-chroma-me --bframes 5 --b-adapt 2 --no-fast-pskip --no-dct-decimate --psy-rd 1.00:0.10 --partitions none --subme 9 --me umh --no-mbtree --keyint 599 --extra:

Параметры кодировки для x264 720p 60fps. --crf 16.0 --preset medium --profile high --level 4.1 --ref 9 --aq-strength 0.9 --deblock -2:-2 --merange 24 --no-chroma-me --bframes 6 --b-adapt 2 --no-fast-pskip --no-dct-decimate --psy-rd 1.00:0.10 --partitions none --subme 9 --me umh --no-mbtree --keyint 599 --extra:

Кодирование 1.Открываете то видео , которое собираетесь закодировать.Во время открытия должно произойти (авто-кроп). 2.Сразу настройте КОНЕЧНУЮ ЧАСТОТУ. pic При этом КОНЕЧНОЕ РАЗРЕШЕНИЕ и ЧАСТОТА должно совпадать со СКРИПТОМ (фильтром) иначе будет рассинхронизация со звуком после кодировки. pic 3.Нажимайте Кодировать.Нагрузка на ЦП и длительность кодирования будет примерно в 2,5 раза больше чем при создании обычного BDrip-а (720p и 1080p).Видимо из-за увеличенного в 2,5 раза количества кадров в секунду. Пример.Кодирования в 1080p с 23,976 до 59,940fps pic В конце должно получиться плавное видео с той же самой продолжительностью проигрывания что и исходное видео (Это важно).Последний штрих Через mkvmerge совместите полученное видео со звуковыми дорожками субтитрами и главами исходного видео (они должны быть синхронизированы).Конец.

MediaInfo:

Общее Уникальный идентификатор : 222254179677035209408194709136303245381 (0xA7349915E828A8B989558FF05AE0C845) Полное имя : F:Бойцовский клуб 720p 60fps.mkv Формат : Matroska Версия формата : Version 4 / Version 2 Размер файла : 11,0 Гбайт Продолжительность : 2 ч. 19 м. Общий поток : 11,3 Мбит/сек Название фильма : Fight Club [10th Anniversary Edition] (1999) - Release for HDClub by HANSMER Дата кодирования : UTC 2014-04-19 22:17:33 Программа кодирования : mkvmerge v6.9.1 ('Blue Panther') 64bit built on Apr 18 2014 18:23:38 Библиотека кодирования : libebml v1.3.0 + libmatroska v1.4.1

Видео Идентификатор : 1 Формат : AVC Формат/Информация : Advanced Video Codec Профиль формата : [email protected] Параметр CABAC формата : Да Параметр ReFrames формата : 9 кадров Идентификатор кодека : V_MPEG4/ISO/AVC Продолжительность : 2 ч. 19 м. Битрейт : 10000 Кбит/сек Ширина : 1280 пикселей Высота : 536 пикселей Соотношение сторон : 2,40:1 Режим частоты кадров : Постоянный Частота кадров : 59,880 кадров/сек Частота кадров в оригинале : 59,940 кадров/сек Цветовое пространство : YUV Субдискретизация насыщенности : 4:2:0 Битовая глубина : 8 бит Тип развёртки : Прогрессивная Бит/(Пиксели*Кадры) : 0.243 Размер потока : 9,50 Гбайт (87%) Библиотека кодирования : x264 core 130 r2273 b3065e6 Настройки программы : cabac=1 / ref=9 / deblock=1:-1:-1 / analyse=0x3:0 / me=umh / subme=9 / psy=1 / psy_rd=1.00:0.10 / mixed_ref=1 / me_range=24 / chroma_me=0 / trellis=1 / 8x8dct=1 / cqm=0 / deadzone=21,11 / fast_pskip=0 / chroma_qp_offset=-3 / threads=6 / lookahead_threads=1 / sliced_threads=0 / nr=0 / decimate=0 / interlaced=0 / bluray_compat=0 / constrained_intra=0 / bframes=6 / b_pyramid=2 / b_adapt=2 / b_bias=0 / direct=3 / weightb=1 / open_gop=0 / weightp=2 / keyint=250 / keyint_min=25 / scenecut=40 / intra_refresh=0 / rc=2pass / mbtree=0 / bitrate=10000 / ratetol=1.0 / qcomp=0.60 / qpmin=0 / qpmax=69 / qpstep=4 / cplxblur=20.0 / qblur=0.5 / ip_ratio=1.40 / pb_ratio=1.30 / aq=1:0.90 Язык : English Default : Да Forced : Нет

Аудио #1 Идентификатор : 2 Формат : AC-3 Формат/Информация : Audio Coding 3 Расширение режима : CM (complete main) Параметр Endianness формата : Big Идентификатор кодека : A_AC3 Продолжительность : 2 ч. 19 м. Вид битрейта : Постоянный Битрейт : 640 Кбит/сек Каналы : 6 каналов Расположение каналов : Front: L C R, Side: L R, LFE Частота : 48,0 КГц Битовая глубина : 16 бит Метод сжатия : С потерями Размер потока : 637 Мбайт (6%) Заголовок : Dub Язык : Russian Default : Да Forced : Нет

Аудио #2 Идентификатор : 3 Формат : AC-3 Формат/Информация : Audio Coding 3 Расширение режима : CM (complete main) Параметр Endianness формата : Big Идентификатор кодека : A_AC3 Продолжительность : 2 ч. 19 м. Вид битрейта : Постоянный Битрейт : 640 Кбит/сек Каналы : 6 каналов Расположение каналов : Front: L C R, Side: L R, LFE Частота : 48,0 КГц Битовая глубина : 16 бит Метод сжатия : С потерями Размер потока : 637 Мбайт (6%) Заголовок : Original Язык : English Default : Нет Forced : Нет

Текст #1 Идентификатор : 4 Формат : UTF-8 Идентификатор кодека : S_TEXT/UTF8 Идентификатор кодека/Информация : UTF-8 Plain Text Заголовок : Forced Язык : Russian Default : Да Forced : Нет

Текст #2 Идентификатор : 5 Формат : UTF-8 Идентификатор кодека : S_TEXT/UTF8 Идентификатор кодека/Информация : UTF-8 Plain Text Заголовок : Full Язык : Russian Default : Нет Forced : Нет

Текст #3 Идентификатор : 6 Формат : UTF-8 Идентификатор кодека : S_TEXT/UTF8 Идентификатор кодека/Информация : UTF-8 Plain Text Заголовок : Full Язык : English Default : Нет Forced : Нет

Меню 00:00:00.000 : en:00:00:00.000 00:02:08.378 : en:00:02:08.378 00:03:54.818 : en:00:03:54.818 00:04:46.328 : en:00:04:46.328 00:06:21.923 : en:00:06:21.923 00:10:22.205 : en:00:10:22.205 00:11:34.903 : en:00:11:34.903 00:19:13.569 : en:00:19:13.569 00:21:41.175 : en:00:21:41.175 00:25:48.005 : en:00:25:48.005 00:29:09.331 : en:00:29:09.331 00:32:27.195 : en:00:32:27.195 00:34:10.465 : en:00:34:10.465 00:35:57.947 : en:00:35:57.947 00:41:36.994 : en:00:41:36.994 00:47:18.961 : en:00:47:18.961 00:48:37.873 : en:00:48:37.873 01:00:18.281 : en:01:00:18.281 01:01:56.254 : en:01:01:56.254 01:09:48.434 : en:01:09:48.434 01:14:57.952 : en:01:14:57.952 01:15:47.626 : en:01:15:47.626 01:19:35.854 : en:01:19:35.854 01:21:29.468 : en:01:21:29.468 01:27:38.545 : en:01:27:38.545 01:35:36.981 : en:01:35:36.981 01:37:48.071 : en:01:37:48.071 01:41:26.789 : en:01:41:26.789 01:45:07.468 : en:01:45:07.468 01:47:58.180 : en:01:47:58.180 01:50:34.878 : en:01:50:34.878 01:56:53.173 : en:01:56:53.173 02:00:36.813 : en:02:00:36.813 02:05:55.715 : en:02:05:55.715 02:09:38.354 : en:02:09:38.354 02:15:53.979 : en:02:15:53.979

main-rutor.org


Смотрите также