Барбоскины игры скачать бесплатно на компьютер


Игры Барбоскины – играть онлайн бесплатно!

Какой бы ни была семья, в ней обязательно будут все те же проблемы, что и у всех. И совершенно неважно, из кого это семья состоит: людей, собак или пчёл. Но на примере животных гораздо проще в юмористической форме представлять то, с чем мы все сталкиваемся в повседневной жизни! Именно поэтому студия «Мельница» и сосредоточила своё внимание на мультиках про животных, снятых специально для детей, и один из них – замечательный мультсериал Барбоскины.

  • Барбоскины: Лиза моет посуду

    Маленькая Лиза – настоящая мамина помощница. Без нее в доме семейства Барбоскиных было бы гораздо менее уютно.

  • Барбоскины: Рыбалка

    Уморительные Барбоскины всегда найдут способ повеселиться или нашкодничать. Сегодня, например, они решили затеять рыбалку.

  • Барбоскины угадывают слова

    Очень веселая и полезная игра. Расширить свой словарный запас никогда не бывает лишним. Буквы все знаешь?

  • Барбоскины ищут совпадения

    Увлекательная игрушка для самых маленьких геймеров. Помогает развивать зрительную память и внимательность. Готов? Тогда поехали!

  • Барбоскины: Пазл

    Занимательный пазл для самых маленьких. Собери портрет Лизы и Гены из кусочков картона как можно быстрее.

  • Барбоскины: Пазл для всех

    Редчайший случай! Почти все малыши Барбоскиных в сборе и стоят смирно: Роза, Гена, Дружок и Малыш взялись за руки и позируют художнику.

  • Барбоскины: Все герои

    Уникальный случай! Все дети Барбоскиных не только собрались вместе, но даже не шалят, не балуются и не разбегаются в разные стороны.

  • Барбоскины: Собери пазл

    Эта игрушка – универсальный способ на долгое время «приковать» к одному и тому же месту даже самого непоседливого, неугомонного малыша.

  • Барбоскины: Собери Лизу

    Очаровательная Лиза – самый любимый мультипликационный персонаж прекрасной половины населения России в возрасте от 2-5 лет.

  • Барбоскины: Удивленные животные

    Еще один симпатичный пазл из жизни неугомонного семейства Барбоскиных. Малыш и Дружок увидели нечто невероятное.

  • Барбоскины вместе

    На этом портрете малыши Барбоскины изображены вместе. Они все ужасно хорошенькие, так и хочется оставить картинку себе на память.

  • Барбоскины: Разноцветный пазл

    Младшее поколение Барбоскиных опять задумало какую-то шкоду. С этими неугомонными собачками приходится держать ухо востро.

  • Барбоскины: Супер - пазл

    Еще одна смешная картинка-иллюстрация из жизни всеми любимого собачьего семейства. Хочешь узнать, что на ней изображено?

  • Барбоскины: Самый Классный Пазл

    Очень яркий и красочный пазл с братьями Барбоскиными. Собери его, если хочешь узнать, что же задумали Дружок и Гена.

  • Барбоскины: Милый пазл

    Есть свободная минутка? Решил сделать паузу в приготовлении уроков? Предлагаем тебе провести ее с пользой и удовольствием.

  • Барбоскины: Крутой Пазл

    Не знаешь, как скоротать время долгими зимними вечерами? У нас есть захватывающее, прямо таки отличное решение. Это пазлы.

  • Барбоскины: Собери всех

    Предлагаем тебе собрать пазл с самой красивой представительницей семейства Барбоскиных – очаровательной Розой.

  • Барбоскины бродилки

    Игра Барбоскины бродилки переносит тебя в таинственное место, где нужно помочь маленькой девочке.

  • Барбоскины 2

    Роза получила долгожданное сообщение от Тимохи. Игры Барбоскины 2 расскажут тебе о том, что же случилось дальше.

  • Барбоскины на двоих

    Игры Барбоскины на двоих дадут тебе возможность проявить смекалку и внимательность. Наверняка, это будет интересно.

  • Барбоскины в одевалках

    Игры одевалки Барбоскины дадут тебе возможность помочь Розе собраться на романтическое свидание.

  • Барбоскины раскраски

    Игры раскраски Барбоскины предлагают тебе вспомнить, как выглядят представители этой замечательной семьи.

  • Разум Барбоскиных

    Барбоскины игры разума – отличный способ проверить твою внимательность в компании представителя этого замечательного семейства.

  • Барбоскины и приключения во сне

    Игра Барбоскины приключения во сне познакомит тебя с героями популярного мультика: Розой, Геной, Лизой, Малышом и Дружком.

  • Барбоскины гонки

    Игра Барбоскины гонки предлагает тебе увлекательно провести время вместе с забавными машинками.

Не нашли любимую игру? Попробуйте наш поиск по играм:

Главная цель детского мультфильма – научить разумному, доброму и вечному. Игры Барбоскины позволяют не только весело провести время с любимыми героями, но и узнать много нового! В случае с сериалом Барбоскины, игры для компьютера – это более чем логичное продолжение той линии, которую начинают веселые персонаже в мультике! Они понравятся и мальчикам и девочкам! Про каждого героя есть свои забавы, которые соответствует его характеру.

Мультсериал Барбоскины увидел свет в 2011 году, и в числе его поклонников сразу же оказались как дети, так и взрослые. Вопреки распространённому мнению о том, что в мультфильме для маленьких детей не должно быть тонкого юмора или сложных диалогов, этот сериал поражает качеством как сюжета, так и картинки и речи героев. С первой же серии возникает ощущение того, что перед нами хорошо продуманный и на совесть сделанный продукт – одним словом, типичный мультфильм производства студии «Мельница».

В Барбоскиных есть место для улыбки или даже весёлого смеха, а есть моменты, над которыми стоит задуматься. Каждая серия – это законченное повествование, в котором кто-то из детей (а иногда и не один) совершает ошибку, но обязательно осознаёт, что был неправ. Но при этом у зрителей нет ощущения, что кто-то читает им скучную нотацию – всё происходит очень естественно! Мораль серии не преподносится в виде неуместного нравоучения – она логически появляется по ходу сюжета и не вызывает никакого отторжения ни у маленьких зрителей, ни у составляющих им компанию взрослых.

Знакомьтесь: Барбоскины!

Барбоскины – это настоящая многодетная семья. Разумеется, когда под одной крышей живут пять детей, скучной или даже просто спокойной жизни ждать точно не приходится. Ведь у каждого из пятерых свой характер – ярко выраженная индивидуальность! Именно из-за этого в семействе Барбоскиных, в принципе достаточно дружном и счастливом, частенько возникают различные конфликты.

Итак, давайте познакомимся со всеми членами этой весёлой семейки!

По старшинству, первым среди Барбоскиных является Дедушка. Впрочем, он появляется в сериале достаточно редко, и всё, что мы о нём знаем – это тот факт, что в прошлом он был моряком дальнего плавания, бороздил моря и океаны.

Далее идут Мама и Папа. Старшие Барбоскины – типичная семейная пара средних лет. Папа работает так много, что даже дома не может расслабиться, а потому не расстаётся с компьютером или газетой. Это и не удивительно для главы такого большого семейства! Мама – домохозяйка. Мы нечасто видим её в кадре, но всё время чувствуем её близкое присутствие. Именно расстроить или разозлить Маму своими шалостями больше всего боятся дети, ведь они очень любят её за заботу и житейскую мудрость.

Самая старшая из детей – Роза. Девочка-подросток, красавица, а потому – любимица всех девчонок! Её интересует то же, что и всех остальных девушек: мода, косметика, мальчики… Впрочем, мальчики не все – а только самые популярные, ведь друзья для неё – такой же аксессуар, как и новая сумочка. Она умеет и любит следить за собой и всегда выглядит на все сто! Из-за этого, чувствуя своё превосходство, часто усмехается над Лизой (та в долгу не остаётся и регулярно устраивает сестре разные пакости).

К сожалению, как и большинство кукольно-красивых девочек, избытком интеллекта Роза не отличается. Зато, несмотря на некоторую заносчивость и увлечённость дорогими вещами, она достаточно добрая девочка и действительно любит сестру и братьев. Она всегда готова прийти на помощь, если чувствует, что без неё не обойтись! Ведь она же старшая, а потому должна всё делать для «своих малышей».

Дружок – самый спортивный среди Барбоскиных. Именно по его просьбе под брендом Барбоскины игры футбол и рыбалка появились и в сети. Ведь для настоящего фаната футбола даже полдня, проведённые вдали от любимой игры, кажутся настоящей пыткой! Вот он и придумал способ, как играть в футбол не только во дворе, когда позволяет погода, но и за компьютером. Да ещё и пристрастил к этому всех поклонников сериала!

Шаловливый и подвижный, Дружок ни минуты не может усидеть на одном месте. И, в отличие от спорта, где мальчишка добивается новых высот почти каждый день, учёба у него хромает! Ведь чтобы хорошо учиться, нужно тратить много времени на скучную подготовку домашнего задания… А заниматься этим Дружку совсем не хочется, тем более, когда на улице светит солнце, и можно с соседским Тимохой гонять мяч.

В противоположность ему, Гена – очень усидчивый, а главное – искренне интересуется наукой. Тайны далёких планет манят его ничуть не меньше, чем химические процессы, которые можно провести в пробирке. Гена – настоящий учёный. Кажется, он знает всё на свете! Его мозг – это огромная энциклопедия, и в школе он учится на одни пятёрки.

Однако браться и сестры, хотя и посмеиваются над ним, но всё же уважают его за интеллект и увлеченность. К тому же он, в отличие от многих не по годам умных ребят, совсем не зазнаётся, и готов всегда помочь окружающим. Гена охотно поболтает с братьями о любых пустяках, но всё же куда более естественно будет ощущать себя в научной беседе, чем в обсуждении прошедшего матча.

Третьеклассница Лиза – девочка с характером! Причём, характером довольно вредным. Будучи младшей сестрой, она часто чувствует себя угнетённой в тени старшей сестры – красотки и самой популярной девочки в школе. Лиза и хотела бы быть такой (у неё даже косметика есть), но всему своё время, и в девять лет выглядеть на шестнадцать и невозможно, и ненужно.

Но Лиза мириться с неравенством не готова, а потому из вредности или зависти частенько устраивает гадости для сестры… В чём, впрочем, всегда потом раскаивается и искренне жалеет Розу, опечаленную результатами очередной пакости. Братьям тоже нередко достаётся от вредного характера младшей сестры, ведь большей ябеды и выдумать нельзя! Но, сколько бы ни пыталась она всех «вывести на чистую воду», дурные поступки Лизы часто оборачивается против неё же самой.

Самый младший Барбоскин – Малыш. Он впитал понемножку от каждого из своих старших братьев и сестер, и пока что сложно сказать, каким он будет, когда подрастёт: определится и станет похожим на кого-то одного или останется похожим на всех и непохожим ни на кого. Он достаточно рассудителен, но при этом не прочь пошалить. Но даже шалит он очень тихо и аккуратно – как и все ещё только начинающие свою деятельность сорванцы, он ужасно трусит любых наказаний, а потому никогда не позволяет себе переходить границы.

Большинство его шалостей он совершает не из желания пойти наперекор тому, что говорят старшие, а просто по незнанию. Впрочем, свои знания о мире он увеличивает с каждым днём, ведь учится весьма усердно. В серии «Барбоскины» игры с Малышом – это простые развивающие задачки для самых маленьких, которые позволяют узнать новые слова и потренировать внимательность.

На нашем сайте в разделе Барбоскины игры с героями мультсериала уже доступны для всех посетителей! Если тебе нравится весёлая семейка, то и играть с ними онлайн тебе обязательно понравится. Игры Барбоскины для девочек – это лучшие мультяшные развивающие игры, ведь в них твои любимые персонажи всегда рады встрече с тобой. Главное, что на нашем сайте в игры Барбоскины играть можно без скачивания и установки – прямо из браузера! А это значит, что любимые герои всегда будут с тобой, куда бы ты ни отправилась.

Комментарии:

multoigri.ru

Скачать торрент Барбоскины [001-170] (2011-2016) WEB-DLRip от ExKinoRay

Информация о фильмеНазвание: БарбоскиныГод выхода: 2011-2016Жанр: мультфильм, детский, семейныйСтрана: Россия, студия МельницаПродолжительность: 170 x ~ 00:04:46Перевод: не требуется

Режиссер: Екатерина Салабай, Галина Воропай, Елена Галдобина...

В ролях: Елена Шульман, Ксения Бржезовская, Олег Куликович, Михаил Черняк, Екатерина Гороховская, Мария Цветкова

О фильме: Мама, папа и… пятеро щенят. Розе - 16 лет, Дружку - 13, Гене - 12, Лизе - 9, Малышу - 4 года. У Барбоскиных все, как у людей. Папа свободное время проводит за компьютером, дочери увлекаются модой и слушают Жанну Киску, а сыновья играют в футбол и мечтают о Нобелевской премии.....

Содержание

001. Пчелка 002. Опять двойка 003. Межгалактическое сообщество 004. Матч 005. Тест на прочность 006. Перевоспитатели 007. Первое место 008. Игры разума 009. Развитие таланта 010. Спокойной ночи 011. Нобелевская премия 012. Миротворец 013. Незаменимый Дружок 014. Гончий Пес 015. Кто красивее 016. Во всем виноват зайка 017. Шнурок 018. Право голоса 019. Держи себя в руках 020. Лучший подарок 021. Ку-ка-ре-ку 022. Побочный эффект 023. Самый лучший 024. Конфетка правды 025. Пульт 026. Колыбельная для Дружка 027. Рыжая 028. Совсем как Жанна Киска 029. Ночь независимости 030. Шкатулка с секретом 031. Все за карточку 032. Триумф силы воли 033. Заместитель джинна 034. Вечные ценности 035. Квартирный вопрос 036. Сладкий закон 037. Шито-крыто 038. Суперпапа 039. Атака клонов 040. Театр 041. Фото на память 042. Звезда 043. Настоящий парень 044. Улыбка фортуны 045. По-взрослому 046. Принц 047. Пропеллер 048. Сама невинность 049. Опыт общения 050. Безотказный 051. Розыгрыш 052. Ни капельки не страшно 053. Мнение окружающих 054. Срочный ремонт 055. Вознаграждение 056. Двойной Дружок 057. Военная тайна 058. Зеленый гоблин 059. Сальмаганди 060. Как стать Львом Яшей 061. Контакт 062. Ремонт 063. Черная суббота 064. Тайное общество волшебников 065. Потомки скажут спасибо 066. Игровая приставка 067. На благо науки 068. Дача 069. Ученик чародея 070. По закону 071. Чемпион 072. Крокодильи слезы 073. Второй шанс 074. Поединок 075. Верное средство 076. Рекорд Пекинеса 077. Игромания 078. Дедушка хочет на море 079. Туфли 080. Фейерверк 081. Большой 082. Скрепколет 083. Практическая магия 084. Прогулка 085. Важное событие 086. Домовой 087. Укрощение строптивой 088. Ночной сеанс 089. Дворовая история 090. Герой в блестящих доспехах 091. Одиночка 092. Пицца 093. Шпинат, шоколад и условный рефлекс 094. Физическая подготовка 095. Морской бой 096. Тайный поклонник 097. Дуэт сестер Барбоскиных 098. Раз шпаргалка, два шпаргалка 099. Неоценимая услуга 100. Клад 101. Любимый брат 102. Бал 103. В эфире новости 104. Конкурс приколов 105. Фальшивый вирус 106. Пчелоптицепес 107. Глобальное потепление 108. Космический шлем 109. Бум-бум, шака-така! 110. Симулянт 111. Элементарная физика 112. Необычная ночь 113. Спорное искусство 114. Творческий поиск 115. Небольшая хитрость 116. Кулинарный шпионаж 117. Самый лучший дед 118. Саблезубая мышь 119. Острый сюжет 120. Фигурист 121. Семейный секрет 122. Маскировка 123. Деду Морозу до востребования 124. Сила трения 125. Морозная пластинка 126. Закаляйся 127. Снежный пес 128. Серьезная подготовка 129. Аномалия 130. Весомый вклад 131. Вперед в прошлое 132. 33 й ген 133. Достоверные эмоции 134. Популярная психология 135. День уступок 136. Аленький цветочек 137. Билет на юг 138. Письмо 139. Сценическая речь 140. Как в кино 141. Пятерка по физкультуре 142. Воздухоплаватель 143. Лучший день 144. Прирожденный лидер 145. Самый честный город 146. Спасибо, Тимоха 147. Удача на завтрак 148. Спасение Земли 149. Мысленное излучение 150. Винтики-шпунтики 151. Романс 152. Пиастры 153. Чудес не бывает 154. Проявить смелость 155. Перезагрузка 156. Красота требует жертв 157. Амнезия 158. Здравствуй, Дедушка Мороз 159. Честный обмен 160. Резонанс 161. Потеряшка 162. Стать Золушкой 163. ЛучИК 164. Соперница 165. Фуэте 166. Дерево желаний 167. Ужасный друг для Малыша 168. Задание на лето 169. Поговори со мной, червяк 170. Большие ВыходныеДоп. информация: Это WEB-версия, широкоформатная (16:9), выходные титры всего 8 секунд... + Реклама вырезана!Официальный сайт / Сэмпл

ЗЫ: В версии с DVD (4:3) выходные титры были 55 секунд.

ФайлФормат: AVIКачество: WEB-DLRipВидео: 704x400 (1.76:1), 25 fps, XviD build 65 ~1600 kbps avg, 0.23 bit/pixelЗвук: 48 kHz, AC3 Dolby Digital, 2/0 (L,R) ch, ~192.00 kbps avgСубтитры: отсутствуют

MI

003. Межгалактическое сообщество. XviD-merci-.avi Format : AVI Format/Info : Audio Video Interleave File size : 63.3 MiB Duration : 4mn 54s Overall bit rate : 1 803 Kbps Writing application : VirtualDubMod 1.5.10.3 | www.virtualdub-fr.org || (build 2550/release) Writing library : VirtualDubMod build 2550/release

Video ID : 0 Format : MPEG-4 Visual Format profile : Advanced [email protected] Format settings, BVOP : 1 Format settings, QPel : No Format settings, GMC : No warppoints Format settings, Matrix : Default (MPEG) Codec ID : XVID Codec ID/Hint : XviD Duration : 4mn 54s Bit rate : 1 601 Kbps Width : 704 pixels Height : 400 pixels Display aspect ratio : 16:9 Frame rate : 25.000 fps Color space : YUV Chroma subsampling : 4:2:0 Bit depth : 8 bits Scan type : Progressive Compression mode : Lossy Bits/(Pixel*Frame) : 0.227 Stream size : 56.2 MiB (89%) Writing library : XviD 65

Audio ID : 1 Format : AC-3 Format/Info : Audio Coding 3 Mode extension : CM (complete main) Format settings, Endianness : Big Codec ID : 2000 Duration : 4mn 54s Bit rate mode : Constant Bit rate : 192 Kbps Channel(s) : 2 channels Channel positions : Front: L R Sampling rate : 48.0 KHz Frame rate : 31.250 fps (1536 spf) Compression mode : Lossy Stream size : 6.74 MiB (11%) Alignment : Split accross interleaves Interleave, duration : 40 ms (1.00 video frame) Interleave, preload duratio : 500 ms

Добавил эпизоды: + 162 - 09.06.2016 + 163 - 08.07.2016 + 164 - 12.08.2016 + 165 - 08.09.2016 + 166 - 27.09.2016 + 167 - 13.10.2016 + 168-169 - 12.11.2016 + 170 - 01.01.2017

Глобальное переименование! - 12.08.2016

Релиз от: Автор релиза: /

krutor.org

Барбоскины игры бесплатно онлайн играть на lipogame.ru

  1. барбоскины игры скачать

По мере выхода серии будут добавляться Для выбора серии нажмите на значок в правом нижнем углу плеера! Мама семьи Барбоскины написала список покупок, которые Дружок вместе с Малышом и Папой должен найти и купить в супер-магазине. В данной категории игр вас ждут самые популярные жанры: красочные одевалки, разноцветные паззлы, увлекательные бродилки и азартные гонки. Повседневная жизнь собачьего семейства, их умение достойно выходить из сложных житейских ситуаций, ладить и договариваться между собой, вовремя подставлять другу, попавшему в неприятности не только плечо, а так же все четыре лапы и даже хвост, если понадобится, сделали Барбоскиных любимцами публики. Игры Барбоскины для девочек – это лучшие мультяшные развивающие игры, ведь в них твои любимые персонажи всегда рады встрече с тобой. Вот тут в игру должны вмешаться вы — чтобы помочь Дружку выполнить следующие задачи: После того, как вы с Дружком успешно выполните все задачи, вас ждут награды — счастливая улыбка Мамы и 5 золотых звёздочек отличия! Так, например, Лизе малыши будут помогать мыть посуду, с Дружком они смогут сыграть в футбол, их учителем английского и русского языков станет Малыш, готовящийся к поступлению в школу, а вот занятиями по развитию внимания будет руководить самый умный из Барбоскиных – Гена. Тех ребят, кто соберет все медали в игротеке, ждет специальный приз, который можно использовать в игре «Футбол» на портале «Барбоскины Онлайн»! Её интересует то же, что и всех остальных девушек: мода, косметика, мальчики… Впрочем, мальчики не все – а только самые популярные, ведь друзья для неё – такой же аксессуар, как и новая сумочка. Собачки средних лет, которые трудятся на благо своих детей, устают и иногда находят время для того, чтобы отдохнуть за любимым хобби.

Скачать Барбоскины — игры для детей для Android

В игровом чате ты можешь обсудить с друзьями новые серии, уроки, погоду и все что угодно, даже если ребята находятся в сотне километров от тебя! Будучи младшей сестрой, она часто чувствует себя угнетённой в тени старшей сестры – красотки и самой популярной девочки в школе. Но, сколько бы ни пыталась она всех «вывести на чистую воду», дурные поступки Лизы часто оборачивается против неё же самой. 31 Августа Игровые новости Расписание спектаклей Барбоскиных на вторую половину 2017 и начало 2018 года. Приятного вам отдыха и увлекательной игры И не забудьте оставить отзыв на страницах приложения в App Store и Google Play :) В сборник включены игры: Наслаждайся трехмерной графикой, прокачивай свою команду, общайся с друзьями и сражайся с ними в футбольных матчах!

Барбоскины [S01-06] (2011-2013/DVD5), Лицензия скачать.

(Магазин. Скачать. Новости. С какого устройства ты заходишь на сайт Барбоскиных? Не указано устройство.)

Все приложения для операционной системы Android™, находящиеся здесь на «Captain Droid», были найдены в свободном доступе в сети Интернет, и представлены только в ознакомительных целях. И это неудивительно, ведь мультфильм, созданный специально для детей, несет в себе цель познакомить ребят с семейными ценностями, с понятиями любви, дружбы и добра. В серии «Барбоскины» игры с Малышом – это простые развивающие задачки для самых маленьких, которые позволяют узнать новые слова и потренировать внимательность. Дедушка – старик с мудрым взглядом, в прошлом был моряком и много чего повидал на своем жизненном пути, часто ворчит, но всегда по делу. Барбоскины: Супермаркет   Мультипликационные герои, оказывается, тоже ходят за покупками в супермаркет — Дружок, Малыш и его Папа! Приятного вам отдыха и увлекательной игры И не забудьте оставить отзыв на страницах приложения в App Store и Google Play :) В сборник включены игры: Помоги Лизе навести порядок на кухне! Конечно, не все могут себе позволить привести животное в квартиру, но мы постарались для вас и теперь Барбоскины у вас дома. Дружок – подающий надежды спортсмен, гоняет в футбол и не представляет своей жизни без мяча и зеленого поля с воротами, даже плохая погода ему не помеха. Мамочка хлопочет по хозяйству, заботится о том, чтобы все были сыты и здоровы, на ура справляется со всеми своими отпрысками. Но Лиза мириться с неравенством не готова, а потому из вредности или зависти частенько устраивает гадости для сестры… В чём, впрочем, всегда потом раскаивается и искренне жалеет Розу, опечаленную результатами очередной пакости. Добрый мультфильм, про семью собачек стал на столько популярным, что сейчас, помимо просмотра всех серий, вы можете бесплатно играть в игры Барбоскины для девочек и мальчиков прямо в интернете! Барбоскины и Фиксики удобное приложение для просмотра любимого многими малышами мультиков про барбоскинов и фиксиков онлайн и бесплатно. (Новая игра на сайте) Футбол в мобильной Игротеке 7 серия - Воздухоплаватель 8 серия - Лучший день Игротека с Барбоскиными для iOS и Android 9 серия - Прирожденный лидер 10 серия - Самый честный город 11 серия - Спасибо, Тимоха! В случае с сериалом Барбоскины, игры для компьютера – это более чем логичное продолжение той линии, которую начинают веселые персонаже в мультике! Сюжет каждой игры несет в себе поучительный смысл, дарит полезный и ценный жизненный опыт, тренирует навыки и воспитывает характер.

wzq.20-qa.gq

Скачать Барбоскины — игры для детей для Android

  1. скачать барбоскины игры

1a.25privat.cf - Если да, то игры данной категории могут помочь в ответе на него. ht.25privat.cf - Нельзя публиковать комментарии текст которых содержит: Все комментарии с внешними ссылками проходят обязательную модерацию. d3.privat25.gq - Лиза — очаровательная капризуля, Дружок грезит о футбольной карьере, белокурая красавица Роза — жуткая модница, а милый Ботаник просто не может жить без своей любимой науки. iq.privat25.gq - Тех ребят, кто соберет все медали в игротеке, ждет специальный приз, который можно использовать в игре «Футбол» на портале «Барбоскины Онлайн»! pa.privat25.ml - Это значит, что мы не храним никаких нелегальных материалов, а так же материалов охраняемых авторским правом. we.privat25.ga - Симпатичные персонажи стали известными благодаря одноименному детскому мультсериалу, который выпустила студия «Мельница». az.25privat.ga - Зато, несмотря на некоторую заносчивость и увлечённость дорогими вещами, она достаточно добрая девочка и действительно любит сестру и братьев. wf.privat25.gq - В игровом чате ты можешь обсудить с друзьями новые серии, уроки, погоду и все что угодно, даже если ребята находятся в сотне километров от тебя! gd.25privat.gq - В честь какого-то праздника, младшему поколению вручили долгожданные подарки, только вот получили ли они то, чего хотели? 2e.privat25.cf - Игры > > Аркады Барбоскины - это несколько интересных игр, которые созданы не только для развлечения, но и для того, чтобы помочь ребенку освоить английский, научиться разгадывать филворды, отработать удары по воротам, выработать точность и ловкость, развить воображение.

Игры Барбоскины – играть онлайн бесплатно!

Папа свободное время проводит за компьютером, дочери увлекаются модой и слушают Жанну Киску, а сыновья играют в футбол и мечтают о Нобелевской премии. Именно поэтому студия «Мельница» и сосредоточила своё внимание на мультиках про животных, снятых специально для детей, и один из них – замечательный мультсериал Барбоскины. Девчонкам будет интересно помочь, например, Розе выбрать наряд для очередной вечеринки или предложить Лизе новый вариант вечернего макияжа или провести генеральную уборку дома. Он впитал понемножку от каждого из своих старших братьев и сестер, и пока что сложно сказать, каким он будет, когда подрастёт: определится и станет похожим на кого-то одного или останется похожим на всех и непохожим ни на кого. А если этот мультик стал еще и популярной игрой, как мультфильм и игры Барбоскины, – то ваш ребенок не только сможет увидеть примеры различных жизненных ситуаций, но и непосредственно в них поучаствовать.

Барбоскины — игры для детей - скачать на андроид, взлом на.

(игры для девочек барбоскины. wyfygeyp.idhost.kz fdgiquwv.idhost.kz optimusany.xn--2017. Игры Барбоскины. Без сомнения, каждая семья имеет свои особенности. Однако проблемы, с которыми сталкиваются все члены семей, очень похожи друг на друга.)

Впрочем, он появляется в сериале достаточно редко, и всё, что мы о нём знаем – это тот факт, что в прошлом он был моряком дальнего плавания, бороздил моря и океаны. Заблокирован рутрекер , рутор , ннмклуб и многие другие, но благодаря Мрутор.орг Вы сможете найти и скачать , все что Вам необходимо, без установки каких либо дополнений и плагинов. В дополнение к мультсериалу появились разнообразные компьютерные игры Барбоскины, где юным геймерам предстоит участвовать в разнообразных семейных мероприятиях Барбоскиных. - интересная сделанная наших маленьких пользователей фильмы мелодрамы бесплатно без регистрации свой компьютер стрелялки игру гарфилд перейдя по ссылке. Игры Барбоскины для девочек – это лучшие мультяшные развивающие игры, ведь в них твои любимые персонажи всегда рады встрече с тобой. Помогите своему ребенку развить внимательность в интересной игровой форме. Удели немного времени и узнаешь, что за чудные ребята собрались для того, чтобы повеселить своих товарищей. Эти чудные ребята доказывают, что какой бы не была родня, нельзя от нее отмахиваться и нужно ценить близких, пока они могут быть рядом. Правда выбор этих игр будет достаточно ограниченным и большая часть из них будут пазлами, но мы надеемся, что в будущем, количество аркад увеличится. Но Лиза мириться с неравенством не готова, а потому из вредности или зависти частенько устраивает гадости для сестры… В чём, впрочем, всегда потом раскаивается и искренне жалеет Розу, опечаленную результатами очередной пакости. Пожалуй главным достоинством этого мультфильма является то, что придуман и нарисован он был полностью в России, благодаря чему в нем не будет жестокости, а идея сериала заключается в поддержании семейных ценностей. Приятного вам отдыха и увлекательной игры И не забудьте оставить отзыв на страницах приложения в App Store и Google Play :) В сборник включены игры: Помоги Лизе навести порядок на кухне! Вот они и решили поделиться этим весельем с вашим ребенком с помощью этой одноименной игры. Милые собачки, которые попадают в очень разные истории и ищут пути выхода из сложных ситуаций, помогут ощутить ребенку присутствие четвероногого друга. Но даже шалит он очень тихо и аккуратно – как и все ещё только начинающие свою деятельность сорванцы, он ужасно трусит любых наказаний, а потому никогда не позволяет себе переходить границы.

efu.22qw.ga

Скачать торрент Барбоскины [001-170] (2011-2016) WEB-DLRip 720p от ExKinoRay

Информация о фильмеНазвание: БарбоскиныГод выхода: 2011-2016Жанр: мультфильм, детский, семейныйСтрана: Россия, студия МельницаПродолжительность: 170 x ~ 00:04:46Перевод: не требуется

Режиссер: Екатерина Салабай, Галина Воропай, Елена Галдобина...

В ролях: Елена Шульман, Ксения Бржезовская, Олег Куликович, Михаил Черняк, Екатерина Гороховская, Мария Цветкова

О фильме: Мама, папа и… пятеро щенят. Розе - 16 лет, Дружку - 13, Гене - 12, Лизе - 9, Малышу - 4 года. У Барбоскиных все, как у людей. Папа свободное время проводит за компьютером, дочери увлекаются модой и слушают Жанну Киску, а сыновья играют в футбол и мечтают о Нобелевской премии...

Содержание

001. Пчелка 002. Опять двойка 003. Межгалактическое сообщество 004. Матч 005. Тест на прочность 006. Перевоспитатели 007. Первое место 008. Игры разума 009. Развитие таланта 010. Спокойной ночи 011. Нобелевская премия 012. Миротворец 013. Незаменимый Дружок 014. Гончий Пес 015. Кто красивее 016. Во всем виноват зайка 017. Шнурок 018. Право голоса 019. Держи себя в руках 020. Лучший подарок 021. Ку-ка-ре-ку 022. Побочный эффект 023. Самый лучший 024. Конфетка правды 025. Пульт 026. Колыбельная для Дружка 027. Рыжая 028. Совсем как Жанна Киска 029. Ночь независимости 030. Шкатулка с секретом 031. Все за карточку 032. Триумф силы воли 033. Заместитель джинна 034. Вечные ценности 035. Квартирный вопрос 036. Сладкий закон 037. Шито-крыто 038. Суперпапа 039. Атака клонов 040. Театр 041. Фото на память 042. Звезда 043. Настоящий парень 044. Улыбка фортуны 045. По-взрослому 046. Принц 047. Пропеллер 048. Сама невинность 049. Опыт общения 050. Безотказный 051. Розыгрыш 052. Ни капельки не страшно 053. Мнение окружающих 054. Срочный ремонт 055. Вознаграждение 056. Двойной Дружок 057. Военная тайна 058. Зеленый гоблин 059. Сальмаганди 060. Как стать Львом Яшей 061. Контакт 062. Ремонт 063. Черная суббота 064. Тайное общество волшебников 065. Потомки скажут спасибо 066. Игровая приставка 067. На благо науки 068. Дача 069. Ученик чародея 070. По закону 071. Чемпион 072. Крокодильи слезы 073. Второй шанс 074. Поединок 075. Верное средство 076. Рекорд Пекинеса 077. Игромания 078. Дедушка хочет на море 079. Туфли 080. Фейерверк 081. Большой 082. Скрепколет 083. Практическая магия 084. Прогулка 085. Важное событие 086. Домовой 087. Укрощение строптивой 088. Ночной сеанс 089. Дворовая история 090. Герой в блестящих доспехах 091. Одиночка 092. Пицца 093. Шпинат, шоколад и условный рефлекс 094. Физическая подготовка 095. Морской бой 096. Тайный поклонник 097. Дуэт сестер Барбоскиных 098. Раз шпаргалка, два шпаргалка 099. Неоценимая услуга 100. Клад 101. Любимый брат 102. Бал 103. В эфире новости 104. Конкурс приколов 105. Фальшивый вирус 106. Пчелоптицепес 107. Глобальное потепление 108. Космический шлем 109. Бум-бум, шака-така! 110. Симулянт 111. Элементарная физика 112. Необычная ночь 113. Спорное искусство 114. Творческий поиск 115. Небольшая хитрость 116. Кулинарный шпионаж 117. Самый лучший дед 118. Саблезубая мышь 119. Острый сюжет 120. Фигурист 121. Семейный секрет 122. Маскировка 123. Деду Морозу до востребования 124. Сила трения 125. Морозная пластинка 126. Закаляйся 127. Снежный пес 128. Серьезная подготовка 129. Аномалия 130. Весомый вклад 131. Вперед в прошлое 132. 33 й ген 133. Достоверные эмоции 134. Популярная психология 135. День уступок 136. Аленький цветочек 137. Билет на юг 138. Письмо 139. Сценическая речь 140. Как в кино 141. Пятерка по физкультуре 142. Воздухоплаватель 143. Лучший день 144. Прирожденный лидер 145. Самый честный город 146. Спасибо, Тимоха 147. Удача на завтрак 148. Спасение Земли 149. Мысленное излучение 150. Винтики-шпунтики 151. Романс 152. Пиастры 153. Чудес не бывает 154. Проявить смелость 155. Перезагрузка 156. Красота требует жертв 157. Амнезия 158. Здравствуй, Дедушка Мороз 159. Честный обмен 160. Резонанс 161. Потеряшка 162. Стать Золушкой 163. ЛучИК 164. Соперница 165. Фуэте 166. Дерево желаний 167. Ужасный друг для Малыша 168. Задание на лето 169. Поговори со мной, червяк 170. Большие ВыходныеДоп. информация: Это WEB-версия, широкоформатная (16:9), выходные титры всего 8 секунд... + Реклама вырезана!Официальный сайт / СэмплЗЫ: В версии с DVD (4:3) выходные титры были 55 секунд.ФайлФормат: MP4Качество: WEB-DLRip 720pВидео: MPEG4-AVC, [email protected], 1280x720 (16:9), 25.000 fps, 2 286 KbpsЗвук: 44.1 KHz, AAC-LC 2.0, 192 KbpsСубтитры: отсутствуют

MI

007. Первое место HD-merci-.mp4 Format : MPEG-4 Format profile : Base Media / Version 2 Codec ID : mp42 (isom/mp42) File size : 84.7 MiB Duration : 4mn 46s Overall bit rate mode : Variable Overall bit rate : 2 480 Kbps Encoded date : UTC 2016-01-28 21:48:40 Tagged date : UTC 2016-01-28 21:48:40 gsst : 0 gstd : 286533

Video ID : 1 Format : AVC Format/Info : Advanced Video Codec Format profile : [email protected] Format settings, CABAC : Yes Format settings, ReFrames : 1 frame Codec ID : avc1 Codec ID/Info : Advanced Video Coding Duration : 4mn 46s Bit rate : 2 286 Kbps Maximum bit rate : 7 096 Kbps Width : 1 280 pixels Height : 720 pixels Display aspect ratio : 16:9 Frame rate mode : Constant Frame rate : 25.000 fps Color space : YUV Chroma subsampling : 4:2:0 Bit depth : 8 bits Scan type : Progressive Bits/(Pixel*Frame) : 0.099 Stream size : 78.1 MiB (92%) Tagged date : UTC 2016-01-28 21:48:43 Color range : Limited Color primaries : BT.709 Transfer characteristics : BT.709 Matrix coefficients : BT.709

Audio ID : 2 Format : AAC Format/Info : Advanced Audio Codec Format profile : LC Codec ID : 40 Duration : 4mn 46s Bit rate mode : Variable Bit rate : 192 Kbps Maximum bit rate : 202 Kbps Channel(s) : 2 channels Channel positions : Front: L R Sampling rate : 44.1 KHz Frame rate : 43.066 fps (1024 spf) Compression mode : Lossy Stream size : 6.56 MiB (8%) Title : IsoMedia File Produced by Google, 5-11-2011 Language : English Encoded date : UTC 2016-01-28 21:48:42 Tagged date : UTC 2016-01-28 21:48:43

Добавил эпизоды: + 162 - 09.06.2016 + 163 - 08.07.2016 + 164 - 12.08.2016 + 165 - 08.09.2016 + 166 - 27.09.2016 + 167 - 13.10.2016 + 168-169 - 12.11.2016 + 170 - 01.01.2017

Глобальное переименование! - 12.08.2016

Релиз от: Автор релиза: /

krutor.org


Смотрите также