Треугольник фильм 2009 скачать торрент hd 1080


rutor.org :: Треугольник / Triangle (2009) BDRip 1080p

Информация о фильмеНазвание: ТреугольникОригинальное название: TriangleГод выхода: 2009Жанр: Ужасы, триллер, детективРежиссер: Кристофер СмитВ ролях: Мелисса Джордж, Джошуа МакИвор, Джек Тейлор, Майкл Дорман, Генри Никсон, Рэйчал Карпани, Эмма Ланг, Лайам Хемсворт, Брайан Пробетс О фильме: Грег приглашает свою подругу Джесс, молодую мать-одиночку, провести день на яхте в кругу своих друзей. Начавшийся сильный шторм переворачивает судно, и оставшиеся в живых вынуждены дожидаться помощи, цепляясь за перевернутый корпус яхты. Спасение приходит в виде огромного океанического лайнера. Судно оказывается пустым, часы на борту остановились. Но они не одни на этом огромном корабле - за ними кто-то неустанно следит… Выпущено: Великобритания, Австралия / Icon Entertainmnet International, Pacific Film and Television Commission Продолжительность: 01:38:52Перевод: Профессиональный двухголосый (R5), Профессиональный многоголосый (TB-3), Авторский (Ю.Немахов)ФайлКодек: MPEG-4 AVCКачество: BDRip 1080pВидео: 1920x814, 24.00 fps, 9721 kbpsЗвук: Russian: AC3, 448 Kbps (6 ch) Профессиональный двухголосый (R5) Russian: AC3, 448 Kbps (6 ch) Профессиональный многоголосый (TB-3) Russian: AC3, 448 Kbps (6 ch) Авторский (Ю.Немахов) English: AC3, 448 kb/s (6 ch) OriginalСубтитры: Russian, EnglishСемпл

MediaInfo & x264

Общее Уникальный идентификатор : 228816339562416097855782911905343661880 (0xAC246C8C1AE4EDA2B213EF65F20AE738) Полное имя : Triangle.2009.x264.BDRip.1080p.mkv Формат : Matroska Версия формата : Version 2 Размер файла : 7,95 Гбайт Продолжительность : 1 ч. 38 м. Общий поток : 11,5 Мбит/сек Название фильма : ☭WIDDER☭ Дата кодирования : UTC 2013-02-25 08:56:05 Программа кодирования : mkvmerge v4.5.0 ('Speed of Light') сборка от Feb 1 2011 02:10:32 Библиотека кодирования : libebml v1.2.0 + libmatroska v1.1.0

Видео Идентификатор : 1 Формат : AVC Формат/Информация : Advanced Video Codec Профиль формата : [email protected] Параметр CABAC формата : Да Параметр ReFrames формата : 5 кадров Идентификатор кодека : V_MPEG4/ISO/AVC Продолжительность : 1 ч. 38 м. Битрейт : 9721 Кбит/сек Ширина : 1920 пикселей Высота : 814 пикселей Соотношение сторон : 2,35:1 Режим частоты кадров : Постоянный Частота кадров : 24,000 кадра/сек Цветовое пространство : YUV Субдискретизация насыщенности : 4:2:0 Битовая глубина : 8 бит Тип развёртки : Прогрессивная Бит/(Пиксели*Кадры) : 0.259 Размер потока : 6,56 Гбайт (82%) Заголовок : Треугольник / Triangle (2009) Библиотека кодирования : x264 core 129 r2245 bc13772 Настройки программы : cabac=1 / ref=5 / deblock=1:-3:-3 / analyse=0x3:0x133 / me=umh / subme=11 / psy=1 / psy_rd=1.00:0.00 / mixed_ref=1 / me_range=48 / chroma_me=1 / trellis=2 / 8x8dct=1 / cqm=0 / deadzone=21,11 / fast_pskip=0 / chroma_qp_offset=-2 / threads=16 / lookahead_threads=2 / sliced_threads=0 / nr=0 / decimate=1 / interlaced=0 / bluray_compat=0 / constrained_intra=0 / bframes=6 / b_pyramid=2 / b_adapt=2 / b_bias=0 / direct=3 / weightb=1 / open_gop=0 / weightp=2 / keyint=240 / keyint_min=24 / scenecut=40 / intra_refresh=0 / rc=2pass / mbtree=0 / bitrate=9721 / ratetol=1.0 / qcomp=0.60 / qpmin=0 / qpmax=69 / qpstep=4 / cplxblur=20.0 / qblur=0.5 / ip_ratio=1.40 / pb_ratio=1.30 / aq=2:0.80 Язык : English Default : Да Forced : Нет

Аудио #1 Идентификатор : 2 Формат : AC-3 Формат/Информация : Audio Coding 3 Расширение режима : CM (complete main) Параметр Endianness формата : Big Идентификатор кодека : A_AC3 Продолжительность : 1 ч. 38 м. Вид битрейта : Постоянный Битрейт : 448 Кбит/сек Каналы : 6 каналов Расположение каналов : Front: L C R, Side: L R, LFE Частота : 48,0 КГц Битовая глубина : 16 бит Метод сжатия : С потерями Размер потока : 317 Мбайт (4%) Заголовок : AC3, 448 Kbps (6 ch) Профессиональный двухголосый (R5) Язык : Russian Default : Да Forced : Нет

Аудио #2 Идентификатор : 3 Формат : AC-3 Формат/Информация : Audio Coding 3 Расширение режима : CM (complete main) Параметр Endianness формата : Big Идентификатор кодека : A_AC3 Продолжительность : 1 ч. 38 м. Вид битрейта : Постоянный Битрейт : 448 Кбит/сек Каналы : 6 каналов Расположение каналов : Front: L C R, Side: L R, LFE Частота : 48,0 КГц Битовая глубина : 16 бит Метод сжатия : С потерями Размер потока : 317 Мбайт (4%) Заголовок : AC3, 448 Kbps (6 ch) Профессиональный многоголосый (TB-3) Язык : Russian Default : Нет Forced : Нет

Аудио #3 Идентификатор : 4 Формат : AC-3 Формат/Информация : Audio Coding 3 Расширение режима : CM (complete main) Параметр Endianness формата : Big Идентификатор кодека : A_AC3 Продолжительность : 1 ч. 38 м. Вид битрейта : Постоянный Битрейт : 448 Кбит/сек Каналы : 6 каналов Расположение каналов : Front: L C R, Side: L R, LFE Частота : 48,0 КГц Битовая глубина : 16 бит Метод сжатия : С потерями Размер потока : 317 Мбайт (4%) Заголовок : AC3, 448 Kbps (6 ch) Авторский (Ю.Немахов) Язык : Russian Default : Нет Forced : Нет

Аудио #4 Идентификатор : 5 Формат : AC-3 Формат/Информация : Audio Coding 3 Расширение режима : CM (complete main) Параметр Endianness формата : Big Идентификатор кодека : A_AC3 Продолжительность : 1 ч. 38 м. Вид битрейта : Постоянный Битрейт : 448 Кбит/сек Каналы : 6 каналов Расположение каналов : Front: L C R, Side: L R, LFE Частота : 48,0 КГц Битовая глубина : 16 бит Метод сжатия : С потерями Размер потока : 317 Мбайт (4%) Заголовок : AC3, 448 kb/s (6 ch) Original Язык : English Default : Нет Forced : Нет

Текст #1 Идентификатор : 6 Формат : ASS Идентификатор кодека : S_TEXT/ASS Идентификатор кодека/Информация : Advanced Sub Station Alpha Метод сжатия : Без потерь Язык : English Default : Нет Forced : Нет

Текст #2 Идентификатор : 7 Формат : UTF-8 Идентификатор кодека : S_TEXT/UTF8 Идентификатор кодека/Информация : UTF-8 Plain Text Язык : Russian Default : Нет Forced : Нет

Меню 00:00:00.000 : :Chapter 01 00:08:41.458 : :Chapter 02 00:19:36.041 : :Chapter 03 00:27:10.500 : :Chapter 04 00:33:28.208 : :Chapter 05 00:38:16.791 : :Chapter 06 00:43:46.375 : :Chapter 07 00:50:34.458 : :Chapter 08 00:58:57.666 : :Chapter 09 01:01:51.083 : :Chapter 10 01:09:19.375 : :Chapter 11 01:19:43.666 : :Chapter 12 01:26:37.791 : :Chapter 13 01:29:16.707 : :Chapter 14 01:31:11.582 : :Chapter 15 01:34:19.375 : :Chapter 16 ____________________________________________ x264 [info]: frame I:987 Avg QP:17.25 size:192983 x264 [info]: frame P:37438 Avg QP:19.65 size: 81720 x264 [info]: frame B:103943 Avg QP:22.12 size: 38074

Релиз от:

main-rutor.org

Треугольник / Triangle | BDRip 1080p [Фильмы 2009] скачать торрентом/torrent бесплатно

Общее Уникальный идентификатор                 : 228816339562416097855782911905343661880 (0xAC246C8C1AE4EDA2B213EF65F20AE738) Полное имя                               : Triangle.2009.x264.BDRip.1080p.mkv Формат                                   : Matroska Версия формата                           : Version 2 Размер файла                             : 7,95 Гбайт Продолжительность                        : 1 ч. 38 м. Общий поток                              : 11,5 Мбит/сек Название фильма                          : ☭WIDDER☭ Дата кодирования                         : UTC 2013-02-25 08:56:05 Программа кодирования                    : mkvmerge v4.5.0 ('Speed of Light':wink: сборка от Feb  1 2011 02:10:32 Библиотека кодирования                   : libebml v1.2.0 + libmatroska v1.1.0

Видео Идентификатор                            : 1 Формат                                   : AVC Формат/Информация                        : Advanced Video Codec Профиль формата                          : [email protected] Параметр CABAC формата                   : Да Параметр ReFrames формата                : 5 кадров Идентификатор кодека                     : V_MPEG4/ISO/AVC Продолжительность                        : 1 ч. 38 м. Битрейт                                  : 9721 Кбит/сек Ширина                                   : 1920 пикселей Высота                                   : 814 пикселей Соотношение сторон                       : 2,35:1 Режим частоты кадров                     : Постоянный Частота кадров                           : 24,000 кадра/сек Цветовое пространство                    : YUV Субдискретизация насыщенности            : 4:2:0 Битовая глубина                          : 8 бит Тип развёртки                            : Прогрессивная Бит/(Пиксели*Кадры)                      : 0.259 Размер потока                            : 6,56 Гбайт (82%) Заголовок                                : Треугольник / Triangle (2009) Библиотека кодирования                   : x264 core 129 r2245 bc13772 Настройки программы                      : cabac=1 / ref=5 / deblock=1:-3:-3 / analyse=0x3:0x133 / me=umh / subme=11 / psy=1 / psy_rd=1.00:0.00 / mixed_ref=1 / me_range=48 / chroma_me=1 / trellis=2 / 8x8dct=1 / cqm=0 / deadzone=21,11 / fast_pskip=0 / chroma_qp_offset=-2 / threads=16 / lookahead_threads=2 / sliced_threads=0 / nr=0 / decimate=1 / interlaced=0 / bluray_compat=0 / constrained_intra=0 / bframes=6 / b_pyramid=2 / b_adapt=2 / b_bias=0 / direct=3 / weightb=1 / open_gop=0 / weightp=2 / keyint=240 / keyint_min=24 / scenecut=40 / intra_refresh=0 / rc=2pass / mbtree=0 / bitrate=9721 / ratetol=1.0 / qcomp=0.60 / qpmin=0 / qpmax=69 / qpstep=4 / cplxblur=20.0 / qblur=0.5 / ip_ratio=1.40 / pb_ratio=1.30 / aq=2:0.80 Язык                                     : English Default                                  : Да Forced                                   : Нет

Аудио #1 Идентификатор                            : 2 Формат                                   : AC-3 Формат/Информация                        : Audio Coding 3 Расширение режима                        : CM (complete main) Параметр Endianness формата              : Big Идентификатор кодека                     : A_AC3 Продолжительность                        : 1 ч. 38 м. Вид битрейта                             : Постоянный Битрейт                                  : 448 Кбит/сек Каналы                                   : 6 каналов Расположение каналов                     : Front: L C R, Side: L R, LFE Частота                                  : 48,0 КГц Битовая глубина                          : 16 бит Метод сжатия                             : С потерями Размер потока                            : 317 Мбайт (4%) Заголовок                                : AC3, 448 Kbps (6 ch) Профессиональный двухголосый (R5) Язык                                     : Russian Default                                  : Да Forced                                   : Нет

Аудио #2 Идентификатор                            : 3 Формат                                   : AC-3 Формат/Информация                        : Audio Coding 3 Расширение режима                        : CM (complete main) Параметр Endianness формата              : Big Идентификатор кодека                     : A_AC3 Продолжительность                        : 1 ч. 38 м. Вид битрейта                             : Постоянный Битрейт                                  : 448 Кбит/сек Каналы                                   : 6 каналов Расположение каналов                     : Front: L C R, Side: L R, LFE Частота                                  : 48,0 КГц Битовая глубина                          : 16 бит Метод сжатия                             : С потерями Размер потока                            : 317 Мбайт (4%) Заголовок                                : AC3, 448 Kbps (6 ch) Профессиональный многоголосый (TB-3) Язык                                     : Russian Default                                  : Нет Forced                                   : Нет

Аудио #3 Идентификатор                            : 4 Формат                                   : AC-3 Формат/Информация                        : Audio Coding 3 Расширение режима                        : CM (complete main) Параметр Endianness формата              : Big Идентификатор кодека                     : A_AC3 Продолжительность                        : 1 ч. 38 м. Вид битрейта                             : Постоянный Битрейт                                  : 448 Кбит/сек Каналы                                   : 6 каналов Расположение каналов                     : Front: L C R, Side: L R, LFE Частота                                  : 48,0 КГц Битовая глубина                          : 16 бит Метод сжатия                             : С потерями Размер потока                            : 317 Мбайт (4%) Заголовок                                : AC3, 448 Kbps (6 ch) Авторский (Ю.Немахов) Язык                                     : Russian Default                                  : Нет Forced                                   : Нет

Аудио #4 Идентификатор                            : 5 Формат                                   : AC-3 Формат/Информация                        : Audio Coding 3 Расширение режима                        : CM (complete main) Параметр Endianness формата              : Big Идентификатор кодека                     : A_AC3 Продолжительность                        : 1 ч. 38 м. Вид битрейта                             : Постоянный Битрейт                                  : 448 Кбит/сек Каналы                                   : 6 каналов Расположение каналов                     : Front: L C R, Side: L R, LFE Частота                                  : 48,0 КГц Битовая глубина                          : 16 бит Метод сжатия                             : С потерями Размер потока                            : 317 Мбайт (4%) Заголовок                                : AC3, 448 kb/s (6 ch) Original Язык                                     : English Default                                  : Нет Forced                                   : Нет

Текст #1 Идентификатор                            : 6 Формат                                   : ASS Идентификатор кодека                     : S_TEXT/ASS Идентификатор кодека/Информация          : Advanced Sub Station Alpha Метод сжатия                             : Без потерь Язык                                     : English Default                                  : Нет Forced                                   : Нет

Текст #2 Идентификатор                            : 7 Формат                                   : UTF-8 Идентификатор кодека                     : S_TEXT/UTF8 Идентификатор кодека/Информация          : UTF-8 Plain Text Язык                                     : Russian Default                                  : Нет Forced                                   : Нет

Меню 00:00:00.000                             : :Chapter 01 00:08:41.458                             : :Chapter 02 00:19:36.041                             : :Chapter 03 00:27:10.500                             : :Chapter 04 00:33:28.208                             : :Chapter 05 00:38:16.791                             : :Chapter 06 00:43:46.375                             : :Chapter 07 00:50:34.458                             : :Chapter 08 00:58:57.666                             : :Chapter 09 01:01:51.083                             : :Chapter 10 01:09:19.375                             : :Chapter 11 01:19:43.666                             : :Chapter 12 01:26:37.791                             : :Chapter 13 01:29:16.707                             : :Chapter 14 01:31:11.582                             : :Chapter 15 01:34:19.375                             : :Chapter 16 ____________________________________________ x264 [info]: frame I:987   Avg QP:17.25  size:192983 x264 [info]: frame P:37438 Avg QP:19.65  size: 81720 x264 [info]: frame B:103943 Avg QP:22.12  size: 38074

freetorrmd.org

Скачать фильм Треугольник через торрент в хорошем качестве бесплатно 720p

Размер: 6.18 GB | Добавлен: 6 лет 8 мес. назад | Торрент скачан:43 раза
Реклама Дарим 3000 рублей за регистрацию, не упусти свой шанс получить шикарный бонус!!!

02-02-2011 15:13 Треугольник Скачать торрент  

Уважительная просьба всем кто,собирается качать или уже качает эту раздачу,когда раздающих меньше 1-ого на протяжение 24 часовжать вот эту кнопку ==> <==,а не ждать святого духа,который встанет на раздачу.

«Fear comes in Waves» Год выхода:2009Выпущено: Жанр: триллер, драма, детективПродолжительность: 01:38:51Перевод: Многоголосый закадровый, ТВ-3

Режиссер:Кристофер Смит В Ролях:Мелисса Джордж, Джошуа МакИвор, Джек Тейлор, Майкл Дорман, Генри Никсон, Рейчал Карпани, Эмма Ланг, Лайам Хемсворт, Bryan Probets Описание: Грег приглашает свою подругу Джесс, молодую мать-одиночку, провести день на яхте в кругу своих друзей. Начавшийся сильный шторм переворачивает судно, и оставшиеся в живых вынуждены дожидаться помощи, цепляясь за перевернутый корпус яхты. Спасение приходит в виде огромного океанического лайнера. Судно оказывается пустым, часы на борту остановились. Но они не одни на этом огромном корабле - за ними кто-то неустанно следит... Доп. информация: Релиз группы: Источник: Triangle 2009 Blu-ray *UK* 1080p AVC DTS-HD MA 5.1 (tnx Mangoat)Качество: BDRip 720pФормат: MKVВидео кодек: H.264 Аудио кодек: AC3,DTS,OGG Размер:6.18 GB (6,633,300,050 байт)Видео: 1280x544 (2.35:1) at 24.000 fps (True24p), [email protected], 2pass, ~6469 kbps avgАудио#1:RU:48 kHz, AC3, 3/2 (L,C,R,l,r) + LFE ch, ~448.00 kbps avg |Двухголосый закадровый, R5|Аудио#2:RU:48 kHz, AC3, 3/2 (L,C,R,l,r) + LFE ch, ~448.00 kbps avg |Многоголосый закадровый, ТВ-3|Аудио#3: EN:48 kHz, DTS, 3/2 (L,C,R,l,r) + LFE ch, ~1536.00 kbps avg |Оригинал|Аудио#4: EN:48 kHz, OGG, 2/0 (L,R) ch, ~80.00 kbps avg |комментарии режиссёра|Субтитры:

Поскольку лицензионная дорожка оказалась ситом с отсутствующими наугад каналами, центральный канал был подогнан под звук с BluRay и сделана полноценная шестиканальная дорога.

В фильме говорится, что Эол (AEOLUS) был отцом Сириуса, проклятым богами и обречённый вечно вкатывать в гору камень. На самом деле, речь идёт о Сизифе, сыне Эола, а Сириус и вовсе собака-спутник Ориона.

© Оформление by .::Sergey::. Скачать Треугольник через торрент http://piratbit.in.ua/d7c77d24e19db5b3cd553328ece549da.jpg Скачать фильм Треугольник через торрент бесплантно в хорошем качестве Описание: Грег приглашает свою подругу Джесс, молодую мать-одиночку, провести день на яхте в кругу своих друзей. Начавшийся сильный шторм ... 2011-02-02 15:13 10 10 2

Loading...

Loading...

Последний раз редактировалось: .::Sergey::. (2011-04-27 16:19), всего редактировалось 2 раз(а)

Рекламный пират

13-03-2011 19:33 Треугольник Скачать торрент  

Дорогой пользователь! Огромная просьба, поблагодарите релизера, оцените раздачу и оставьте свои комментарий, если Вы скачали Треугольник через торрент бесплатно! Внесите свою лепту в развитие PiratBit!

Комментировать посты могут только пользователи прошедшие не сложную регистрацию

Треугольник через торрент Скачать бесплатно Треугольник Треугольник скачать торрент Треугольник смотреть онлайн Cкачать фильм Треугольник бесплатно Треугольник скачать торрент в хорошем качестве Треугольник смотреть онлайн бесплатно в хорошем качестве

Вы не можете начинать темыВы не можете отвечать на сообщенияВы не можете редактировать свои сообщенияВы не можете удалять свои сообщенияВы не можете голосовать в опросахВы не можете прикреплять файлы к сообщениямВы можете скачивать файлы

piratbit.ru

rutor.org :: Треугольник / Triangle (2009) BDRip-AVC от potroks

Год выпуска: 2009Производство: Великобритания, Австралия / Dan Films, Framestore, UK Film Council, Pictures in Paradise Pty. Ltd.Жанр: Ужасы, триллер, детективПродолжительность: 01:38:52Перевод: Профессиональный (двухголосый закадровый) R5Субтитры: Английские, русские (Notabenoid), русские (mr_greenwood)Режиссер: Кристофер Смит / Christopher Smith

В ролях: Мелисса Джордж, Джошуа МакИвор, Джек Тейлор, Майкл Дорман, Генри Никсон, Рейчал Карпани, Эмма Ланг, Лиам Хемсворт, Брайан Пробетс

О фильме: Грег приглашает свою подругу Джесс, молодую мать-одиночку, провести день на яхте в кругу своих друзей. Начавшийся сильный шторм переворачивает судно, и оставшиеся в живых вынуждены дожидаться помощи, цепляясь за перевернутый корпус яхты. Спасение приходит в виде огромного океанического лайнера. Судно оказывается пустым, часы на борту остановились. Но они не одни на этом огромном корабле - за ними кто-то неустанно следит...

Бюджет: $12 000 000 Качество: BDRip-AVC [Blu-Ray Remux]Формат: MKVВидео: H.264, 1064x450 (2,35:1), 24,000 fps, 2269 Кbps, 0.197 bit/pixelАудио#1: 48 kHz, AC3 Dolby Digital, 3/2 (L,C,R,l,r) + LFE ch, 448.00 kbps | RUSАудио#2: 48 kHz, AC3 Dolby Digital, 3/2 (L,C,R,l,r) + LFE ch, 448.00 kbps | ENG Автор рипа:

MI

Общее Уникальный идентификатор : 197374810710527182590929117481243016117 (0x947D017D84D7C32B92CC35599D507BB5) Полное имя : Treugol'nik.2009.P.BDRip.x264.potroks.mkv Формат : Matroska Версия формата : Version 4 / Version 2 Размер файла : 2,18 Гбайт Продолжительность : 1 ч. 38 м. Общий поток : 3159 Кбит/сек Название фильма : -=POTROKS=- Дата кодирования : UTC 2013-05-19 04:29:55 Программа кодирования : mkvmerge v5.9.0 ('On The Loose') built on Dec 15 2012 16:39:58 Библиотека кодирования : libebml v1.3.0 + libmatroska v1.4.0

Видео Идентификатор : 1 Формат : AVC Формат/Информация : Advanced Video Codec Профиль формата : [email protected] Параметр CABAC формата : Да Параметр ReFrames формата : 10 кадров Идентификатор кодека : V_MPEG4/ISO/AVC Продолжительность : 1 ч. 38 м. Битрейт : 2269 Кбит/сек Ширина : 1064 пикселя Высота : 450 пикселей Соотношение сторон : 2,35:1 Режим частоты кадров : Постоянный Частота кадров : 24,000 кадра/сек Цветовое пространство : YUV Субдискретизация насыщенности : 4:2:0 Битовая глубина : 8 бит Тип развёртки : Прогрессивная Бит/(Пиксели*Кадры) : 0.197 Размер потока : 1,52 Гбайт (70%) Заголовок : Triangle Библиотека кодирования : x264 core 125 r2208 d9d2288 Настройки программы : cabac=1 / ref=10 / deblock=1:-2:-1 / analyse=0x3:0x133 / me=esa / subme=9 / psy=1 / psy_rd=1.03:0.00 / mixed_ref=1 / me_range=32 / chroma_me=1 / trellis=2 / 8x8dct=1 / cqm=0 / deadzone=21,11 / fast_pskip=0 / chroma_qp_offset=-2 / threads=9 / lookahead_threads=1 / sliced_threads=0 / nr=0 / decimate=1 / interlaced=0 / bluray_compat=0 / constrained_intra=0 / bframes=11 / b_pyramid=2 / b_adapt=2 / b_bias=0 / direct=3 / weightb=1 / open_gop=0 / weightp=2 / keyint=240 / keyint_min=23 / scenecut=40 / intra_refresh=0 / rc_lookahead=100 / rc=2pass / mbtree=1 / bitrate=2269 / ratetol=1.0 / qcomp=0.70 / qpmin=0 / qpmax=69 / qpstep=4 / cplxblur=20.0 / qblur=0.5 / vbv_maxrate=20000 / vbv_bufsize=25000 / nal_hrd=none / ip_ratio=1.35 / aq=1:0.80 Язык : English Default : Да Forced : Нет

Аудио #1 Идентификатор : 2 Формат : AC-3 Формат/Информация : Audio Coding 3 Расширение режима : CM (complete main) Параметр Endianness формата : Big Идентификатор кодека : A_AC3 Продолжительность : 1 ч. 38 м. Вид битрейта : Постоянный Битрейт : 448 Кбит/сек Каналы : 6 каналов Расположение каналов : Front: L C R, Side: L R, LFE Частота : 48,0 КГц Битовая глубина : 16 бит Метод сжатия : С потерями Размер потока : 317 Мбайт (14%) Заголовок : DVO | DD 5.1 @ 448 kbps - R5 Язык : Russian Default : Да Forced : Да

Аудио #2 Идентификатор : 3 Формат : AC-3 Формат/Информация : Audio Coding 3 Расширение режима : CM (complete main) Параметр Endianness формата : Big Идентификатор кодека : A_AC3 Продолжительность : 1 ч. 38 м. Вид битрейта : Постоянный Битрейт : 448 Кбит/сек Каналы : 6 каналов Расположение каналов : Front: L C R, Side: L R, LFE Частота : 48,0 КГц Битовая глубина : 16 бит Метод сжатия : С потерями Размер потока : 317 Мбайт (14%) Заголовок : Original | DD 5.1 @ 448 kbps Язык : English Default : Нет Forced : Нет

Текст #1 Идентификатор : 4 Формат : UTF-8 Идентификатор кодека : S_TEXT/UTF8 Идентификатор кодека/Информация : UTF-8 Plain Text Язык : English Default : Нет Forced : Нет

Текст #2 Идентификатор : 5 Формат : UTF-8 Идентификатор кодека : S_TEXT/UTF8 Идентификатор кодека/Информация : UTF-8 Plain Text Заголовок : Notabenoid Язык : Russian Default : Нет Forced : Нет

Текст #3 Идентификатор : 6 Формат : UTF-8 Идентификатор кодека : S_TEXT/UTF8 Идентификатор кодека/Информация : UTF-8 Plain Text Заголовок : mr_greenwood Язык : Russian Default : Нет Forced : Нет

[email protected]

avs [info]: 1064x450p 1:1 @ 10000000/416667 fps (cfr) x264 [info]: using SAR=1/1 x264 [info]: using cpu capabilities: MMX2 SSE2Fast SSSE3 FastShuffle SSE4.2 AVX XOP FMA4 SSEMisalign LZCNT x264 [info]: profile High, level 4.1

x264 [info]: frame I:1042 Avg QP:17.22 size: 54074 x264 [info]: frame P:33245 Avg QP:19.10 size: 22903 x264 [info]: frame B:108080 Avg QP:21.11 size: 7942 x264 [info]: consecutive B-frames: 2.7% 4.5% 9.2% 22.7% 17.5% 36.5% 3.3% 0.5% 1.0% 0.4% 0.4% 1.4% x264 [info]: mb I I16..4: 17.0% 62.3% 20.7% x264 [info]: mb P I16..4: 2.5% 9.9% 2.1% P16..4: 42.2% 17.5% 15.5% 0.8% 0.2% skip: 9.2% x264 [info]: mb B I16..4: 0.1% 1.0% 0.3% B16..8: 42.3% 10.5% 2.9% direct: 5.0% skip:37.8% L0:42.8% L1:46.8% BI:10.5% x264 [info]: 8x8 transform intra:67.2% inter:65.7% x264 [info]: direct mvs spatial:97.6% temporal:2.4% x264 [info]: coded y,uvDC,uvAC intra: 76.4% 70.9% 38.2% inter: 23.7% 20.7% 1.7% x264 [info]: i16 v,h,dc,p: 46% 19% 6% 28% x264 [info]: i8 v,h,dc,ddl,ddr,vr,hd,vl,hu: 17% 10% 5% 9% 13% 14% 12% 11% 10% x264 [info]: i4 v,h,dc,ddl,ddr,vr,hd,vl,hu: 25% 7% 4% 8% 13% 13% 11% 9% 10% x264 [info]: i8c dc,h,v,p: 37% 26% 22% 14% x264 [info]: Weighted P-Frames: Y:3.4% UV:1.2% x264 [info]: ref P L0: 48.5% 11.8% 15.3% 6.5% 4.8% 3.9% 3.2% 2.1% 1.8% 1.8% 0.3% 0.0% x264 [info]: ref B L0: 75.4% 10.5% 5.6% 2.6% 2.1% 1.5% 1.4% 0.6% 0.3% x264 [info]: ref B L1: 92.7% 7.3% x264 [info]: kb/s:2260.40

x264 [total]: encoded 142367 frames, 5.20 fps, 2260.40 kb/s

main-rutor.org


Смотрите также