Тетрадь смерти фильм 2006 скачать торрент многоголосый


rutor.org :: Тетрадь смерти / Death Note [01-37 из 37] (2006) BDRip 1080p от SDIncorporation | Mega-Anime

Тетрадь смерти / Death Note (2006) [01-37 из 37] BDRip [1080p-HQ] (Saturated Color) от SDIncorporation | Mega-Anime

Информация о фильмеРусское название: Тетрадь смертиОригинальное название: Death NoteСтрана: ЯпонияСтудия: MadhouseГод выпуска: 2006Жанр: Детектив, Криминал, Драма, мистикаПеревод: Профессиональный многоголосый закадровыйАвтор перевода: Mega-AnimeРежиссер: Араки ТэцуроРабота над релизом:

  • Nod33Eset(retvil) [01-37]
  • StreetDespair [01-37]
  • Jonny_NAT [01-37]
  • 69SexyMan [01-37]Исходник: BluRay 2016 Год

    О фильме: Тетрадь смерти (Death Note) — ставшая культовой японская манга, придуманная Цугуми Обой и нарисованная Такэси Обатой, а также выпущенные на её основе анимационные сериал и фильмы, игровые фильмы, лайт-новел и видеоигры. В основу сюжета легла философская идея: «Можно ли добиться блага для одних людей путем убийств других?». Автор придумал оригинальную историю, в которой отражается суть того, что бы могло быть с миром, если бы человек мог безнаказанно убивать одних людей, чтобы сделать лучше жизнь других. Цугуми Ооба рассматривает реакцию как самого убийцы, его мотивы и желания, так и реакцию общества на действия убийцы.

    Сюжет: Лайт Ягами — лучший ученик Японии, сын полицейского, который с детства хотел пойти по стопам отца, чтобы искоренить преступность не только в Японии, но и во всём мире. Однажды, когда одному из синигами (богов смерти) Рюку стало скучно, он подкинул Тетрадь смерти — совершенное орудие убийства — на Землю. Лайту, нашедшему тетрадь, выпал случай изменить мир быстро и безнаказанно. Он стал вершить своё правосудие: убивать преступников. Торжество Лайта над преступностью было недолгим, ибо совсем скоро странными смертями преступников заинтересовался Интерпол и начал расследование, подключив к нему не только весь мир, но и самого востребованного детектива, всегда скрывающегося под псевдонимом L (Эл). L начинает настоящую войну с Лайтом, которому в это время уже дали прозвище Кира (латиницей яп. ??, Kira — убийца). Противостояние гениев — лучшего ученика Японии с одной стороны и лучшего детектива в мире с другой — начинает историю «Тетради смерти». Лайт не может совершать ошибки, потому что если его поймают, он не сможет вершить своё правосудие и получит смертный приговор. Его оппонент тоже не может сделать ни одной ошибки, потому что в противном случае Кира убьёт его. В это противостояние, к тому же, вмешиваются сверхъестественные силы в лице богов смерти, а также другие последователи Киры и сторонники L.

    Продолжительность: 37 из 37 серий по ~00:23:00Качество видео: BDRip 1080p-HQ (Saturated Color)Видеокодек: AVCФормат: MKVБитрейт видео: ~7000 KbpsРазмер кадра: 1280x720Аудиокодек: AC3Битрейт аудио: 448 kbpsАудио #1: Русский (48 kHz, AC3 Dolby Digital, 2 channels, ~448 kbps) — Профессиональный многоголосый закадровый [Mega-Anime]Аудио #2: Английский (48 kHz, AC3 Dolby Digital, 2 channels, ~448 kbps) — Профессиональный Многоголосый закадровый [VIZ Media]Аудио #3: Японский (48 kHz, AC3 Dolby Digital, 2 channels, ~448 kbps) — Оригинальный [Japanese]

    О Saturated Color

    Saturated Color - это версия с насыщенными цветами, приближенными к релизу HDTV 2014-2015 года

    MI:

    General Unique ID : 245869946305994486950999973043922603234 (0xB8F8D4468DAC8B30A6D76CA14ED10CE2) Complete name : Death.Note.s01e01.BDRip.1080p.HQ.Saturated.Color.Rus.Eng.Jap.SDIncorporation.mkv Format : Matroska Format version : Version 4 / Version 2 File size : 2.35 GiB Duration : 23mn 1s Overall bit rate mode : Variable Overall bit rate : 14.6 Mbps Movie name : Death Note Episode 1 [BDRip 1080p-HQ] (Saturated Color) © SDIncorporation Encoded date : UTC 2016-07-10 12:27:22 Writing application : mkvmerge v9.2.0 ('Photograph') 64bit Writing library : libebml v1.3.3 + libmatroska v1.4.4 Cover : Yes Attachments : cover.png

    Video ID : 1 Format : AVC Format/Info : Advanced Video Codec Format profile : [email protected] Format settings, CABAC : Yes Format settings, ReFrames : 3 frames Codec ID : V_MPEG4/ISO/AVC Duration : 23mn 1s Bit rate mode : Variable Bit rate : 13.3 Mbps Maximum bit rate : 24.0 Mbps Width : 1 920 pixels Height : 1 080 pixels Display aspect ratio : 16:9 Frame rate mode : Variable Frame rate : 23.976 (23976/1000) fps Original frame rate : 25.000 fps Standard : NTSC Color space : YUV Chroma subsampling : 4:2:0 Bit depth : 8 bits Scan type : Progressive Bits/(Pixel*Frame) : 0.267 Stream size : 2.13 GiB (91%) Title : Video Default : Yes Forced : No Color range : Limited

    Audio #1 ID : 2 Format : AC-3 Format/Info : Audio Coding 3 Mode extension : CM (complete main) Format settings, Endianness : Big Codec ID : A_AC3 Duration : 23mn 1s Bit rate mode : Constant Bit rate : 448 Kbps Channel(s) : 2 channels Channel positions : Front: L R Sampling rate : 48.0 KHz Frame rate : 31.250 fps (1536 spf) Compression mode : Lossy Stream size : 73.8 MiB (3%) Title : Russian (Mega-Anime) Language : Russian Default : Yes Forced : No

    Audio #2 ID : 3 Format : AC-3 Format/Info : Audio Coding 3 Mode extension : CM (complete main) Format settings, Endianness : Big Codec ID : A_AC3 Duration : 23mn 1s Bit rate mode : Constant Bit rate : 448 Kbps Channel(s) : 2 channels Channel positions : Front: L R Sampling rate : 48.0 KHz Frame rate : 31.250 fps (1536 spf) Compression mode : Lossy Stream size : 73.8 MiB (3%) Title : English (VIZ Media) Language : English Default : No Forced : No

    Audio #3 ID : 4 Format : AC-3 Format/Info : Audio Coding 3 Mode extension : CM (complete main) Format settings, Endianness : Big Codec ID : A_AC3 Duration : 23mn 1s Bit rate mode : Constant Bit rate : 448 Kbps Channel(s) : 2 channels Channel positions : Front: L R Sampling rate : 48.0 KHz Frame rate : 31.250 fps (1536 spf) Compression mode : Lossy Stream size : 73.8 MiB (3%) Title : Japanese (Original) Language : Japanese Default : No Forced : No

    Menu 00:00:00.000 : :Chapter 1 00:01:26.127 : :Chapter 2 00:10:46.145 : :Chapter 3 00:21:26.243 : :Chapter 4 00:22:36.188 : :Chapter 5

    Список серий

    № - Википедия / Кинопоиск / Японский / Английский 01 - Перерождение / Тетрадь смерти / Shinsei / New Birth 02 - Конфронтация / Противостояние / Taiketsu / Confrontation 03 - Сделка / СделкаTorihiki / Deal 04 - Преследование / Погоня / Tsuiseki / Pursuit 05 - Тактика / Торг / Kakehiki / Tactics 06 - Разрыв / Открытый шов / Hokorobi / Rent 07 - Облачное небо / Хмурое небо / Donten / Cloudy Weather 08 - Взгляд / Взгляд / Mesen / Glance 09 - Контакт / Контакт / Sesshoku / Touch 10 - Подозрение / Подозрение / Giwaku / Suspicion 11 - Вторжение / Штурм / Totsunyu / Plunge 12 - Любовь / Любовь / Koigokoro / Beloved 13 - Признание / Признание / Kokuhaku / Confession 14 - Друг / Друг / Tomodachi / Friend 15 - Игра / СтавкаKake / Gambling 16 - Решение / Решение / Ketsudan / Determination 17 - Казнь / Казнь / Shikkou / Enforcement 18 - Компаньон / Товарищи / Nakama / Comrade 19 - Мацуда / Мацуда / Matsuda / Matsuda 20 - Замена / Замена / Kosoku / Makeshift 21 - Участие / Работа / Katsuyaku / Activity 22 - Управление / Направление / Yuudou / Lead 23 - Мания / Безумие / Kyousou / Crazy 24 - Возрождение / Возрождение / Fukkatsu / Resurrection 25 - Тишина / Тишина / Chinmoku / Silence 26 - Воспроизведение / Воспроизведение / Saisei / Reincarnation 27 - Похищение / Похищение / Yukai / Abduction 28 - Нетерпение / Нетерпение / Kokei / Impatience 29 - Отец / Отец / Chichioya / Father 30 - Справедливость / Справедливость / Seigi / Justice 31 - Передача / Перемещение / Ijou / Transfer 32 - Выбор / Выбор / Sentaku / Selection 33 - Насмешка / Усмешка / Choushou / Ridicule 34 - Осторожность / Настороженность / Koshi / Vigilance 35 - Преступное намерение / Жажда крови / Satsui / Murderous Intent 36 - 28 января / 28 января / 1.28 / 1.28 37 - Новый мир / Новый мир / Shinsekai / New World

    Время раздачи: С 8:00 до 22:00

    Релиз от: ©SDIncorporation

  • main-rutor.org

    rutor.org :: Тетрадь смерти / Death Note [01-37 из 37] (2006) BDRip 1080p от SDIncorporation | Mega-Anime

    Тетрадь смерти / Death Note (2006) [01-37 из 37] BDRip [1080p-HQ] (Original Color) от SDIncorporation | Mega-Anime

    Информация о фильмеРусское название: Тетрадь смертиОригинальное название: Death NoteСтрана: ЯпонияСтудия: MadhouseГод выпуска: 2006Жанр: Детектив, Криминал, Драма, мистикаПеревод: Профессиональный многоголосый закадровыйАвтор перевода: Mega-AnimeРежиссер: Араки ТэцуроРабота над релизом:

  • Nod33Eset(retvil) [01-37]
  • StreetDespair [01-37]
  • Jonny_NAT [01-37]Исходник: BluRay 2016 Год

    О фильме: Тетрадь смерти (яп. ????? Дэсу Но:то, Death Note) — ставшая культовой японская манга, придуманная Цугуми Обой и нарисованная Такэси Обатой, а также выпущенные на её основе анимационные сериал и фильмы, игровые фильмы, лайт-новел и видеоигры. В основу сюжета легла философская идея: «Можно ли добиться блага для одних людей путем убийств других?». Автор придумал оригинальную историю, в которой отражается суть того, что бы могло быть с миром, если бы человек мог безнаказанно убивать одних людей, чтобы сделать лучше жизнь других. Цугуми Ооба рассматривает реакцию как самого убийцы, его мотивы и желания, так и реакцию общества на действия убийцы.

    Сюжет: Лайт Ягами — лучший ученик Японии, сын полицейского, который с детства хотел пойти по стопам отца, чтобы искоренить преступность не только в Японии, но и во всём мире. Однажды, когда одному из синигами (богов смерти) Рюку стало скучно, он подкинул Тетрадь смерти — совершенное орудие убийства — на Землю. Лайту, нашедшему тетрадь, выпал случай изменить мир быстро и безнаказанно. Он стал вершить своё правосудие: убивать преступников. Торжество Лайта над преступностью было недолгим, ибо совсем скоро странными смертями преступников заинтересовался Интерпол и начал расследование, подключив к нему не только весь мир, но и самого востребованного детектива, всегда скрывающегося под псевдонимом L (Эл). L начинает настоящую войну с Лайтом, которому в это время уже дали прозвище Кира (латиницей яп. ??, Kira — убийца). Противостояние гениев — лучшего ученика Японии с одной стороны и лучшего детектива в мире с другой — начинает историю «Тетради смерти». Лайт не может совершать ошибки, потому что если его поймают, он не сможет вершить своё правосудие и получит смертный приговор. Его оппонент тоже не может сделать ни одной ошибки, потому что в противном случае Кира убьёт его. В это противостояние, к тому же, вмешиваются сверхъестественные силы в лице богов смерти, а также другие последователи Киры и сторонники L.

    Продолжительность: 37 из 37 серий по ~00:23:00Качество видео: BDRip 1080p-HQ (Original Color)Видеокодек: AVCФормат: MKVБитрейт видео: ~14000 KbpsРазмер кадра: 1920x1080Аудиокодек: AC3Битрейт аудио: 448 kbpsАудио #1: Русский (48 kHz, AC3 Dolby Digital, 2 channels, ~448 kbps) — Профессиональный многоголосый закадровый [Mega-Anime]Аудио #2: Английский (48 kHz, AC3 Dolby Digital, 2 channels, ~448 kbps) — Профессиональный Многоголосый закадровый [VIZ Media]Аудио #3: Японский (48 kHz, AC3 Dolby Digital, 2 channels, ~448 kbps) — [Japanese]

    MI:

    General Unique ID : 206784076832434954603618269471214352536 (0x9B912A2090B1E268B6641531C9FF3898) Complete name : Death.Note.s01e01.BDRip.1080p.HQ.Original.Color.Rus.Eng.Jap.SDIncorporation.mkv Format : Matroska Format version : Version 4 / Version 2 File size : 2.35 GiB Duration : 23mn 1s Overall bit rate mode : Variable Overall bit rate : 14.6 Mbps Movie name : Death Note Episode 1 [BDRip 1080p-HQ] (Original Color) © SDIncorporation Encoded date : UTC 2016-06-17 18:11:02 Writing application : mkvmerge v9.2.0 ('Photograph') 64bit Writing library : libebml v1.3.3 + libmatroska v1.4.4 Cover : Yes Attachments : cover.png

    Video ID : 1 Format : AVC Format/Info : Advanced Video Codec Format profile : [email protected] Format settings, CABAC : Yes Format settings, ReFrames : 3 frames Codec ID : V_MPEG4/ISO/AVC Duration : 23mn 1s Bit rate mode : Variable Bit rate : 13.3 Mbps Maximum bit rate : 24.0 Mbps Width : 1 920 pixels Height : 1 080 pixels Display aspect ratio : 16:9 Frame rate mode : Variable Frame rate : 23.976 (23976/1000) fps Original frame rate : 25.000 fps Standard : NTSC Color space : YUV Chroma subsampling : 4:2:0 Bit depth : 8 bits Scan type : Progressive Bits/(Pixel*Frame) : 0.267 Stream size : 2.13 GiB (91%) Title : Video Default : Yes Forced : No Color range : Limited

    Audio #1 ID : 2 Format : AC-3 Format/Info : Audio Coding 3 Mode extension : CM (complete main) Format settings, Endianness : Big Codec ID : A_AC3 Duration : 23mn 1s Bit rate mode : Constant Bit rate : 448 Kbps Channel(s) : 2 channels Channel positions : Front: L R Sampling rate : 48.0 KHz Frame rate : 31.250 fps (1536 spf) Compression mode : Lossy Stream size : 73.8 MiB (3%) Title : Russian (Mega-Anime) Language : Russian Default : Yes Forced : No

    Audio #2 ID : 3 Format : AC-3 Format/Info : Audio Coding 3 Mode extension : CM (complete main) Format settings, Endianness : Big Codec ID : A_AC3 Duration : 23mn 1s Bit rate mode : Constant Bit rate : 448 Kbps Channel(s) : 2 channels Channel positions : Front: L R Sampling rate : 48.0 KHz Frame rate : 31.250 fps (1536 spf) Compression mode : Lossy Stream size : 73.8 MiB (3%) Title : English (VIZ Media) Language : English Default : No Forced : No

    Audio #3 ID : 4 Format : AC-3 Format/Info : Audio Coding 3 Mode extension : CM (complete main) Format settings, Endianness : Big Codec ID : A_AC3 Duration : 23mn 1s Bit rate mode : Constant Bit rate : 448 Kbps Channel(s) : 2 channels Channel positions : Front: L R Sampling rate : 48.0 KHz Frame rate : 31.250 fps (1536 spf) Compression mode : Lossy Stream size : 73.8 MiB (3%) Title : Japanese (Original) Language : Japanese Default : No Forced : No

    Menu 00:00:00.000 : :Chapter 1 00:01:26.127 : :Chapter 2 00:10:46.145 : :Chapter 3 00:21:26.243 : :Chapter 4 00:22:36.188 : :Chapter 5

    Список серий

    № - Википедия / Кинопоиск / Японский / Английский 01 - Перерождение / Тетрадь смерти / Shinsei / New Birth 02 - Конфронтация / Противостояние / Taiketsu / Confrontation 03 - Сделка / СделкаTorihiki / Deal 04 - Преследование / Погоня / Tsuiseki / Pursuit 05 - Тактика / Торг / Kakehiki / Tactics 06 - Разрыв / Открытый шов / Hokorobi / Rent 07 - Облачное небо / Хмурое небо / Donten / Cloudy Weather 08 - Взгляд / Взгляд / Mesen / Glance 09 - Контакт / Контакт / Sesshoku / Touch 10 - Подозрение / Подозрение / Giwaku / Suspicion 11 - Вторжение / Штурм / Totsunyu / Plunge 12 - Любовь / Любовь / Koigokoro / Beloved 13 - Признание / Признание / Kokuhaku / Confession 14 - Друг / Друг / Tomodachi / Friend 15 - Игра / СтавкаKake / Gambling 16 - Решение / Решение / Ketsudan / Determination 17 - Казнь / Казнь / Shikkou / Enforcement 18 - Компаньон / Товарищи / Nakama / Comrade 19 - Мацуда / Мацуда / Matsuda / Matsuda 20 - Замена / Замена / Kosoku / Makeshift 21 - Участие / Работа / Katsuyaku / Activity 22 - Управление / Направление / Yuudou / Lead 23 - Мания / Безумие / Kyousou / Crazy 24 - Возрождение / Возрождение / Fukkatsu / Resurrection 25 - Тишина / Тишина / Chinmoku / Silence 26 - Воспроизведение / Воспроизведение / Saisei / Reincarnation 27 - Похищение / Похищение / Yukai / Abduction 28 - Нетерпение / Нетерпение / Kokei / Impatience 29 - Отец / Отец / Chichioya / Father 30 - Справедливость / Справедливость / Seigi / Justice 31 - Передача / Перемещение / Ijou / Transfer 32 - Выбор / Выбор / Sentaku / Selection 33 - Насмешка / Усмешка / Choushou / Ridicule 34 - Осторожность / Настороженность / Koshi / Vigilance 35 - Преступное намерение / Жажда крови / Satsui / Murderous Intent 36 - 28 января / 28 января / 1.28 / 1.28 37 - Новый мир / Новый мир / Shinsekai / New World

    Время раздачи: С 8:00 до 22:00

    Релиз от: ©SDIncorporation

  • main-rutor.org

    rutor.org :: Тетрадь Смерти: Трилогия / Death Note: Trilogy (2006-2008) HDRip от R.G.RealMT

    Тетрадь Смерти / Death Note

    Год выхода: 2006Жанр: Фэнтези, драма, криминал, детектив, приключения

    Режиссер: Шусуке КанекоВ ролях: Татсуя Фудживара, Кеничи Матсуяма, Асака Сето, Шигеки Хосокава, Эрика Тода, Сюндзи Фуджимура, Такеши Кага, Ю Кашии, Шидо Накамура

    О фильме: В основном сюжет вертится вокруг студента старшей школы Ягами Лайта, который решил освободить мир от зла с помощью сверхъестественной «Тетради Смерти». Если написать настоящее имя человека в эту тетрадь, то он умрёт. Однако одного имени недостаточно: необходимо знать также и внешность жертвы. Ягами Лайт начинает массовые убийства преступников по всему миру с помощью этой тетради, но его берётся остановить таинственный детектив «L».

    Страна: ЯпонияСтудия: Death Note Film Partners, Nippon Television Network, Shueisha, Warner Bros.Продолжительность: 02:06:37Перевод: Любительский одноголосый (AnimeGroup)Субтитры: Нет

    Качество: HDRipФормат: AVIВидео кодек: X264Аудио кодек: MP3Видео: 993 kbps, 800x450, 25 fpsАудио: 128 kbps, 2 ch, 44,1 khz

    Интересно

    События аниме происходят «со сдвигом» на 3 года относительно событий манги. В частности, в манге действие начинается в 2004 году, а в аниме — в 2007. По манге, День рождения Лайта — 28 февраля 1986 года, а по аниме — 28 февраля 1989 года. В аниме и манге Лайт играл в теннис, в фильмах — в баскетбол. Рея Пенбера в фильмах зовут Рей Ивамацу. Звонок на одном из трёх мобильных телефонов Аманэ Мисы — песня «Alumina» группы Nightmare, которая звучит в первом эндинге. Такой же звонок на телефоне менеджера Мисы — Мацуды Тоты.

    Тетрадь Смерти 2 /Death Note 2: The Last Name

    Год выхода: 2006Жанр: Фэнтези, драма, криминал, детектив, приключения

    Режиссер: Шусуке КанекоВ ролях: Тетсуя Фудживара, Кен'ичи Матсуяма, Асака Сето, Шигеки Хосокава, Эрика Тода, Шинджи Фуджимура, Такеши Кага

    О фильме: Вы когда-нибудь хотели изменить мир к лучшему? Сделать его чище, правильнее… Хотели? Ягами Лайт, юный гений, послушный сын, красавец и просто идеальный студент тоже этого хотел. Теперь у вас есть шанс увидеть, что получилось у него. Ибо случайная находка — тетрадь Бога Смерти — подарила юноше возможность легко убить практически любого человека в любой точке земного шара. И Лайт начинает свой крестовый поход против зла на Земле, начав с тотального истребления преступников. Как класса. Массовая гибель подозреваемых, а то и заключенных, не могла не привлечь внимание Интерпола, и она его привлекла. Однако загадочность всех этих смертей не давала полицейским никакой зацепки, ни одной ниточки, по которой можно было бы узнать, кто такое творит… И тогда на след загадочного Киры (так начали называть таинственного борца за справедливость в Интернете) вышел L — один из лучших детективов в мире. Кто же победит в этом противостоянии — всемогущий Кира или гениальный L?

    Страна: Япония, СШАСтудия: Death Note Film Partners, Warner Bros., Horipro Inc., Nippon Television NetworkПродолжительность: 02:20:40Перевод: Любительский одноголосый (AnimeGroup)Субтитры: Нет

    Качество: HDRipФормат: AVIВидео кодек: X264Аудио кодек: MP3Видео: 996 kbps, 800x450, 25 fpsАудио: 128 kbps, 2 ch, 44,1 khz

    Награды

    Азиатская киноакадемия, 2007 годНоминации (1):

    Лучшая работа сценариста

    Тетрадь Смерти 3 / Death Note 3: L Change The World

    Год выхода: 2008Жанр: Фэнтези, драма, криминал, детектив, приключенияРежиссер: Хидео НакатаВ ролях: Кеничи Матсуяма, Сота Аояма, Сюндзи Фуджимура, Татсуя Фудживара, Маюко Фукуда, Наруши Фукуда, Сей Хирайзуми, Шигеки Хосокава, Рэндзи Исибаси, Юта Канаи

    О фильме: После окончания расследования по делу Киры L сталкивается с еще одним серьезным случаем. В мире снова появляется человек, который обладает страшным оружием. На этот раз L должен обходиться без своего верного помощника Ватари и у него остается всего 23 дня, чтобы раскрыть это дело.

    Страна: ЯпонияСтудия: Nippon Television Network, Warner Bros., Shochiku Company, Nikkatsu PicturesПродолжительность: 02:08:56Перевод: Любительский многоголосый (Cinema-group)Субтитры: Нет

    Качество: HDRipФормат: AVIВидео кодек: X264Аудио кодек: MP3Видео: 997 kbps, 800x432, 25 fpsАудио: 128 kbps, 2 ch, 44,1 khz

    Релиз от: R.G.RealMT

    main-rutor.org

    Скачать фильм Тетрадь смерти через торрент в хорошем качестве бесплатно WEB-DLRip

    Раздают: 15 [ 0 KB/s ]
    Размер: 1.46 GB | Добавлен: 1 мес. 28 д. назад | Торрент скачан:1235 раз
    Реклама Дарим 3000 рублей за регистрацию, не упусти свой шанс получить шикарный бонус!!!

    26-08-2017 11:05 Тетрадь смерти Скачать торрент  

    Тетрадь смерти / Death Note

    Год выпуска: 2017Страна: СШАЖанр: ужасы, фэнтези, триллер, детективПродолжительность: 01:41:26Перевод: Любительский (многоголосый)[MUZOBOZ]Субтитры: Присутствуют,Русские

    Режиссер: Адам Вингард

    Премьера в мире: 24 августа 2017

    В ролях: Лейкит Стэнфилд, Уиллем Дефо, Маргарет Куэлли, Нат Вулф, Шей Уигэм, Маси Ока, Майкл Шамус Уайлз, Пол МакДжиллион, Джейсон Лилз, Натали Ривалин

    Описание: Способный студент Лайт находит загадочную тетрадь смерти, которая может убить любого, чье имя в нее вписать. Парень решает начать миссию по очистке улиц от преступников. Вскоре студент-линчеватель обнаруживает, что его преследует известный профайлер ФБР, скрывающийся под псевдонимом L.

    Доп. информация: Присутствует Реклама!!!

    Качество: WEB-DLRipФормат: AVIВидео кодек: XviDАудио кодек: AC3Видео: XviD , 720х304 , 23.976 FPS, 1 664 kb/s, 8 bitsАудио#1: AC-3 , 2 ch , 384 kb/s , 48.0 kHz , 16 bits

    GeneralComplete name : P:\Death.Note.2017.P.WEB-DLRip.aviFormat : AVIFormat/Info : Audio Video InterleaveFile size : 1.46 GiBDuration : 1 h 41 minOverall bit rate : 2 057 kb/sWriting application : VirtualDubMod 1.5.10.2 (build 2540/release)Writing library : VirtualDubMod build 2540/release

    VideoID : 0Format : MPEG-4 VisualFormat profile : Advanced [email protected] settings, BVOP : 2Format settings, QPel : NoFormat settings, GMC : No warppointsFormat settings, Matrix : Default (MPEG)Codec ID : XVIDCodec ID/Hint : XviDDuration : 1 h 41 minBit rate : 1 664 kb/sWidth : 720 pixelsHeight : 304 pixelsDisplay aspect ratio : 2.35:1Frame rate : 23.976 (24000/1001) FPSColor space : YUVChroma subsampling : 4:2:0Bit depth : 8 bitsScan type : ProgressiveCompression mode : LossyBits/(Pixel*Frame) : 0.317Stream size : 1.18 GiB (81%)Writing library : XviD 1.2.1 (UTC 2008-12-04)

    AudioID : 1Format : AC-3Format/Info : Audio Coding 3Mode extension : CM (complete main)Format settings, Endianness : BigCodec ID : 2000Duration : 1 h 41 minBit rate mode : ConstantBit rate : 384 kb/sChannel(s) : 2 channelsChannel positions : Front: L RSampling rate : 48.0 kHzFrame rate : 31.250 FPS (1536 spf)Bit depth : 16 bitsCompression mode : LossyStream size : 279 MiB (19%)Alignment : Split accross interleavesInterleave, duration : 42 ms (1.00 video frame)Interleave, preload duratio : 500 ms

    Скачать Тетрадь смерти через торрент http://pic1.pb.wtf/images/11/lp2ss.jpg Скачать фильм Тетрадь смерти через торрент бесплантно в хорошем качестве Описание: Способный студент Лайт находит загадочную тетрадь смерти, которая может убить любого, чье имя в нее вписать. Парень решает начать ... 2017-08-26 11:10 9.3 10 30

    Loading...

    Loading...

    % Раздел Тема Автор DL S | L
    T Релизы по Парсеру [Фильмы, Игры, Сериалы и другое...] [ 1.46 GB ] Тетрадь Смерти / Death Note [2017 WEBRip] MVO bober100 Скачать
    T Релизы по Парсеру [Фильмы, Игры, Сериалы и другое...] [ 9.86 GB ] Тетрадь Смерти / Death Note [2017 WEBRip 1080p] MVO bober100 Скачать
    T Релизы по Парсеру [Фильмы, Игры, Сериалы и другое...] [ 1.36 GB ] Тетрадь смерти / Death Note WEBRip | AvePremier Ворон Скачать
    Аниме [DVDrip, WEB-DLRip, HDrip] [ 15.71 GB ] Тетрадь Смерти / Death Note [37 из 37] JAP SUB) [2006 DVDRip] gumah5e3 Скачать
    Видео для КПК и Смартфонов [ 3.14 GB ] [AVI 800x] Тетрадь Смерти: Трилогия / Death Note: Trilogy [2006 - 2008 Шусуке Канеко] HDRip от R.G.RealMT Страна Скачать
    Аниме [DVDrip, WEB-DLRip, HDrip] [ 1.29 GB ] Тетрадь Смерти - Режиссерская Версия / Death Note Director s Cut [RAW] [RUS+JAP] [2007 DVDRip] Tyler_Durden Скачать
    Аниме [DVDrip, WEB-DLRip, HDrip] [ 1.2 GB ] Тетрадь смерти. Преемники L / Death note. Rewrite 2-L's Successors [2008 анимация DVDRip DVO] Abosalatin Скачать

    Рекламный пират

    26-08-2017 11:19 Тетрадь смерти Скачать торрент  

    Фильм, неочём. Полное несоответствие. Ожидал увидеть старых героев, хоть как то похожих на оригинал или почувствовать ностальгию от сюжета, но не того ни другого так и не обнаружил.

    26-08-2017 11:34 Тетрадь смерти Скачать торрент  

    Для тех кто не смотрит аниме, фильм норм?

    26-08-2017 12:21 Тетрадь смерти Скачать торрент  

    STAFOR писал(а):

    Фильм, неочём. Полное несоответствие. Ожидал увидеть старых героев, хоть как то похожих на оригинал или почувствовать ностальгию от сюжета, но не того ни другого так и не обнаружил.

    Я надеялся что это будет ответ, проще говоря СЕРИАЛ из 10 серий минимум........но они насрали нам в душу......

    26-08-2017 13:18 Тетрадь смерти Скачать торрент  

    ФУУУ! Это такое говнище! Лучше аниме пересмотреть чем это ...!

    26-08-2017 18:50 Тетрадь смерти Скачать торрент  

    Дешёвка

    27-08-2017 07:34 Тетрадь смерти Скачать торрент  

    не смотрите это ГАВНИЩЕ с нулевой игрой актёров и амерекосовской толерантностью , что один герой должен быть НИГЕР !!! Хоть педиков не видно в фильмне !!!

    27-08-2017 13:13 Тетрадь смерти Скачать торрент  

    интересное кино.

    31-08-2017 13:18 Тетрадь смерти Скачать торрент  

    Сюжет и логический смысл на троечку, порадовало как подобрали русский голоса под него. Сравнивать с аниме и японскими фильмами нельзя, ибо абсолютно разные. Посмотреть можно, с Вас не убудет.Мне было любопытно. При просмотре вспоминал аниме, сравнивал (смотрел его оч. давно). Не считаю впустую потерю времени, разок глянуть можно) ИМХО

    Pекламный агент PB

    01-09-2017 02:42 Тетрадь смерти Скачать торрент  

    мне даже как то понравилось))))сразу аниме вспоминаеться !разок точно стоит посмотреть))

    01-09-2017 13:54 Тетрадь смерти Скачать торрент  

    Неплохой фильм))) снят скорей как собственное произведение) фильм не заставляет скучать))) в отличии от недавно вышедшего секретного агента(((

    11-09-2017 02:07 Тетрадь смерти Скачать торрент  

    всю идею оригинала "Тетрадь смерти" не передать в полнометражном фильме (1,5-2 часа), тем более любители анимэ вообще ссать кипятком в комментах будут, и мы все прекрасно знаем, что задумка ХОРОША, но реализована КРИВО!

    16-09-2017 17:40 Тетрадь смерти Скачать торрент  

    Цитата:

    Тетрадь смерти / Death Note (Адам Вингард) [2017 г., ужасы, фэнтези, триллер, детектив, WEB-DLRip, Любительский (многоголосый)[MUZOBOZ]]

    Оригинальное аниме смотрел давно, несоответствия есть. Фильм понравился.

    Дорогой пользователь! Огромная просьба, поблагодарите релизера, оцените раздачу и оставьте свои комментарий, если Вы скачали Тетрадь смерти через торрент бесплатно! Внесите свою лепту в развитие PiratBit!

    Комментировать посты могут только пользователи прошедшие не сложную регистрацию

    Тетрадь смерти через торрент Скачать бесплатно Тетрадь смерти Тетрадь смерти скачать торрент Тетрадь смерти смотреть онлайн Cкачать фильм Тетрадь смерти бесплатно Тетрадь смерти скачать торрент в хорошем качестве Тетрадь смерти смотреть онлайн бесплатно в хорошем качестве

    Вы не можете начинать темыВы не можете отвечать на сообщенияВы не можете редактировать свои сообщенияВы не можете удалять свои сообщенияВы не можете голосовать в опросахВы не можете прикреплять файлы к сообщениямВы можете скачивать файлы

    piratbit.ru


    Смотрите также